Шокирующее кунгфу семьи Хо / Шокирующее кунг-фу Хо / Shocking Kungfu of Huo\'s (Дай Вэй / Dai Wai / David) [2018, Китай, Боевик, боевые искусства, триллер, WEB-DLRip] VO (В. Береговых) + Sub Eng, Zho + Original Zho

Reply to topic
DL-List and Torrent activity [Update пиров]
Size:  1.37 GB   |    Registered:  10 days   |    Completed:  1 time

Seeder not seen: 6 days

 
   
 
 
 
Author Message

Мых

Post 07-Oct-2019 22:44

[Quote]

Шокирующее кунгфу семьи Хо / Шокирующее кунг-фу Хо / Shocking Kungfu of Huo's
Страна: Китай
Жанр: Боевик, боевые искусства, триллер
Год выхода: 2018
Продолжительность: 01:38:36
Перевод: Одноголосый закадровый | Виктор Береговых
Субтитры: английские, китайские
Оригинальная аудиодорожка: китайский
Режиссер: Дай Вэй / Dai Wai / David
В ролях:
Янь Цзе, Чжан Ланьи, Ли Хохо, Чэнь Цюго, Цзи Юнцин, Тони Лун, Ли Хунчжи, Темур Мамисашвили, Ди Аопу, Сунь Тао, Лу Тэнфэй, Ян Цичун, Лу Ань
Описание:
Во время революции 1911 года в Шанхае мастера боевых искусств Хо Чжэньшань и Хэ Дачуань объединяются, чтобы сжечь опиумный притон, который крышует банда Топоров. Во время акции, Хэ Дачуань был убит, однако при этом спас своего друга Хо Чжэньшаня. 20 лет спустя Хо Чжэньшань открывает школу боевых искусств в Шанхае, чтобы продвигать китайские боевые искусства и найти родственников Хэ Дачуаня. Столкнувшись с проблемой боксерского зала на черном рынке, Хо Чжэньшань побеждает противников, но отказывается работать на хозяина боксерского клуба Стоуна. Однако старший ученик Хуан Цзиньпин тайно вступает в сговор с боссом боксерского зала и убивает своего учителя.-| Источник: none для рипа WEB-DL (1080p) | Скачать сэмпл |
Заказ озвучивания: vitolinform-Качество видео: WEB-DLRip
Формат файла: AVI
Видео: 720x304 (2.35:1), 23.976 fps, XviD build 67 ~1588 kbps avg, 0.303 bit/pixel
Аудио 1: 48 kHz, AC3 Dolby Digital, 2/0 (L,R) ch, ~192 kbps | Одноголосый закадровый (Виктор Береговых)
Аудио 2: 48 kHz, AC3 Dolby Digital, 2/0 (L,R) ch, ~192 kbps | Китайский
Формат файла субтитров: hardsub (неотключаемые)

MediaInfo

Shocking.Kungfu.Of.Huo.2018.WEB-DLRip.aviФормат файла : AVIФормат файла/Информация : Audio Video InterleaveРазмер файла : 1,37 ГбайтПродолжительность : 1 ч. 38 м.Общий поток : 1986 Кбит/секНазвание фильма : Шокирующее кунгфу семьи Хо / Shocking Kungfu of Huo's (2018) WEB-DLRipРежиссёр : КитайЖанр : Боевик, драмаПрограмма кодирования : VirtualDubMod 1.5.10.2 (build 2542/release)Формат файла оригинала/Имя : Художественный фильмАвторское право : Дай Вэй / Dai Wai / DavidПримечание : Rip by vitolinform
ВидеоИдентификатор : 0Формат файла : MPEG-4 VisualПрофиль формата : Advanced Simple@L5Настройки формата : BVOP2Параметр BVOP формата : 2Параметр QPel формата : НетПараметр GMC формата : Без точки переходаПараметр матрицы формата : Default (MPEG)Идентификатор кодека : XVIDИдентификатор кодека/Подсказка : XviDПродолжительность : 1 ч. 38 м.Битрейт : 1588 Кбит/секШирина : 720 пикселейВысота : 304 пикселяСоотношение сторон : 2,35:1Частота кадров : 23,976 (24000/1001) кадра/секЦветовое пространство : YUVСубдискретизация насыщенности : 4:2:0Битовая глубина : 8 битТип развёртки : ПрогрессивнаяМетод сжатия : С потерямиБит/(Пиксели*Кадры) : 0.303Размер потока : 1,09 Гбайт (80%)Библиотека кодирования : XviD 67
Аудио #1Идентификатор : 1Формат файла : AC-3Формат файла/Информация : Audio Coding 3Коммерческое название : Dolby DigitalИдентификатор кодека : 2000Продолжительность : 1 ч. 38 м.Вид битрейта : ПостоянныйБитрейт : 192 Кбит/секКаналы : 2 каналаChannelLayout : L RЧастота : 48,0 КГцЧастота кадров : 31,250 кадров/сек (1536 SPF)Битовая глубина : 16 битМетод сжатия : С потерямиРазмер потока : 135 Мбайт (10%)Выравнивание : Разделение по промежуткамПродолжительность промежутка : 42 мс. (1,00 видеокадр)Время предзагрузки промежутка : 500 мс.Заголовок : Russian (VO Виктор Береговых)ServiceKind/String : Complete Main
Аудио #2Идентификатор : 2Формат файла : AC-3Формат файла/Информация : Audio Coding 3Коммерческое название : Dolby DigitalИдентификатор кодека : 2000Продолжительность : 1 ч. 38 м.Вид битрейта : ПостоянныйБитрейт : 192 Кбит/секКаналы : 2 каналаChannelLayout : L RЧастота : 48,0 КГцЧастота кадров : 31,250 кадров/сек (1536 SPF)Битовая глубина : 16 битМетод сжатия : С потерямиРазмер потока : 135 Мбайт (10%)Выравнивание : Разделение по промежуткамПродолжительность промежутка : 42 мс. (1,00 видеокадр)Время предзагрузки промежутка : 500 мс.Заголовок : ChineseServiceKind/String : Complete Main

Скриншот c названием фильма

Скриншоты



[geo-torrent.biz]_t_5788008.torrent
Torrent: Registered ·  [ 2019-10-07 22:44 ] ·  283e4a9449a32335324422d6ef5fd5a05b64114d

14 KB

Status: checked
Completed: 1 times
Size: 1.37 GB
Rating: 
(Votes: 0)
Say thanks: 0  Thanks
Похожие темы
[Profile]    [PM]
Display posts from previous:    
Reply to topic

The time now is: Today 15:39

All times are GMT + 7 Hours



You cannot post new topics in this forum
You cannot reply to topics in this forum
You cannot edit your posts in this forum
You cannot delete your posts in this forum
You cannot vote in polls in this forum
You cannot attach files in this forum
You can download files in this forum