Марианна юности моей / Marianne de ma jeunesse / Marianne (Жюльен Дювивье / Julien Duvivier) [1955, Франция, Германия (ФРГ), драма, мистика, DVDRip] [немецкая версия] AVO (Юрий Сербин) + Original Deu

Reply to topic
DL-List and Torrent activity [Update пиров]
Size:  1.46 GB   |    Registered:  5 months 10 days   |    Completed:  0 times

Seeder not seen: Never

 
   
 
 
 
Author Message

Генри

Post 11-Sep-2019 11:36

[Quote]

Марианна юности моей / Marianne de ma jeunesse / Marianne
Страна: Франция, Германия (ФРГ)
Жанр: драма, мистика
Год выхода: 1955
Продолжительность: 01:43:51
Перевод: Авторский (одноголосый закадровый) - Юрий Сербин
Субтитры: нет
Оригинальная аудиодорожка: немецкий
Режиссер: Жюльен Дювивье / Julien Duvivier
Композитор: Жак Ибер / Jacques Ibert
В ролях: Марианна Хольд / Marianne Hold ... Marianne
Хорст Буххольц / Horst Buchholz ... Vincent Loringer
Удо Фиофф / Udo Vioff ... Manfred
Жан Йоннель / Jean Yonnel ... Der Freiherr
Фридрих Домин / Friedrich Domin ... Professor
Михаэль Анде / Michael Ande ... Klein-Felix
Гарри Хардт / Harry Hardt ... Rittmeister von Brauer
Ади Бербер / Ady Berber ... Diener
Карл Зимон / Carl Simon ... Gottvater
Берт Брандт / Bert Brandt ... Toby
Петер Фогель / Peter Vogel ... Jan
Изабелла Пиа / Isabella Pia ... Liselotte

Описание: Экранизация романа Петера фон Мендельсона "Аркадия страданий" ("Schmerzliches Arkadien").
В школе-интернате, расположенной в замке Хайлигенштадт, возвышающемся на берегу горного озера, появляется новенький по имени Винсент Лорингер. Тонко чувствующий юноша с необычными способностями нарушает традиционный школьный уклад. К тому же на противоположной стороне озера находится заброшенный таинственный особняк, который вызывает у учеников школы повышенный интерес, потому что о нем ходит разная молва, а дыма без огня, как известно, не бывает...
Дополнительная информация: Фильм имеет две версии - представленную здесь немецкую, и французскую, с другими актерами.--Большое спасибо - Юрий Сербин - за перевод на слух с немецкогоСпасибо - [url=profile.php?mode=viewprofile&u=1296187]Master_Bum[/url] - за работу со звуком--Сэмпл: http://www.sendspace.com/file/fq3808
Качество видео: DVDRip
Формат файла: AVI
Видео: XviD, 704x528 (1.33:1), 25 fps, 1616 Kbps
Аудио 1: AC3, 48.0 KHz, 2 ch., 192 Kbps (русский авторский одноголосый закадровый перевод) - Юрий Сербин
Аудио 2: AC3, 48.0 KHz, 2 ch., 192 Kbps (оригинальная немецкая звуковая дорожка)

MediaInfo

Общее
Полное имя : K:\РАЗДАЧИ\Marianne de ma jeunesse (1955) (German version).avi
Формат файла : AVI
Формат файла/Информация : Audio Video Interleave
Размер файла : 1,46 Гбайт
Продолжительность : 1 ч. 43 м.
Общий поток : 2014 Кбит/сек
Программа кодирования : VirtualDubMod 1.5.10.3 | www.virtualdub-fr.org || (build 2550/release)
Библиотека кодирования : VirtualDubMod build 2550/release
Видео
Идентификатор : 0
Формат файла : MPEG-4 Visual
Профиль формата : Advanced Simple@L5
Параметр BVOP формата : 2
Параметр QPel формата : Нет
Параметр GMC формата : Без точки перехода
Параметр матрицы формата : Default (H.263)
Идентификатор кодека : XVID
Идентификатор кодека/Подсказка : XviD
Продолжительность : 1 ч. 43 м.
Битрейт : 1616 Кбит/сек
Ширина : 704 пикселя
Высота : 528 пикселей
Соотношение сторон : 4:3
Частота кадров : 25,000 кадров/сек
Цветовое пространство : YUV
Субдискретизация насыщенности : 4:2:0
Битовая глубина : 8 бит
Тип развёртки : Прогрессивная
Метод сжатия : С потерями
Бит/(Пиксели*Кадры) : 0.174
Размер потока : 1,17 Гбайт (80%)
Библиотека кодирования : XviD 73
Аудио #1
Идентификатор : 1
Формат файла : AC-3
Формат файла/Информация : Audio Coding 3
Параметр Endianness формата : Big
Идентификатор кодека : 2000
Продолжительность : 1 ч. 43 м.
Вид битрейта : Постоянный
Битрейт : 192 Кбит/сек
Каналы : 2 канала
Расположение каналов : Front: L R
Частота : 48,0 КГц
Частота кадров : 31,250 кадров/сек (1536 spf)
Битовая глубина : 16 бит
Метод сжатия : С потерями
Размер потока : 143 Мбайт (10%)
Выравнивание : Разделение по промежуткам
Продолжительность промежутка : 40 мс. (1,00 видеокадр)
Время предзагрузки промежутка : 500 мс.
ServiceKind/String : Complete Main
Аудио #2
Идентификатор : 2
Формат файла : AC-3
Формат файла/Информация : Audio Coding 3
Параметр Endianness формата : Big
Идентификатор кодека : 2000
Продолжительность : 1 ч. 43 м.
Вид битрейта : Постоянный
Битрейт : 192 Кбит/сек
Каналы : 2 канала
Расположение каналов : Front: L R
Частота : 48,0 КГц
Частота кадров : 31,250 кадров/сек (1536 spf)
Битовая глубина : 16 бит
Метод сжатия : С потерями
Размер потока : 143 Мбайт (10%)
Выравнивание : Разделение по промежуткам
Продолжительность промежутка : 40 мс. (1,00 видеокадр)
Время предзагрузки промежутка : 500 мс.
ServiceKind/String : Complete Main


[geo-torrent.biz]_t_5776429.torrent
Torrent: Registered ·  [ 2019-09-11 11:36 ] ·  bd32bafaac049fb598df3a64f4fa96aa4a7b3353

15 KB

Status: checked
Completed: 0 times
Size: 1.46 GB
Rating: 
(Votes: 0)
Say thanks: 0  Thanks
Похожие темы
[Profile]    [PM]
Display posts from previous:    
Reply to topic

The time now is: Today 04:12

All times are GMT + 7 Hours



You cannot post new topics in this forum
You cannot reply to topics in this forum
You cannot edit your posts in this forum
You cannot delete your posts in this forum
You cannot vote in polls in this forum
You cannot attach files in this forum
You can download files in this forum