В плену / Anoko no Toriko / Ano ko no, Toriko (Рё Мияваки / Ryo Miyawaki) [2018, Япония, Комедия, мелодрама, HDRip] DVO (Asian Miracle Group) + Sub Eng, Zho + Original Jpn

Reply to topic
DL-List and Torrent activity [Update пиров]
Size:  1.68 GB   |    Registered:  5 months 29 days   |    Completed:  1 time

Seeder not seen: 5 months 20 days

 
   
 
 
 
Author Message

Мых

Post 23-Aug-2019 20:12

[Quote]

В плену / Anoko no Toriko / Ano ko no, Toriko
Страна: Япония
Студия: Toriko Movie
Жанр: Комедия, мелодрама
Год выхода: 2018
Продолжительность: 01:39:22
Перевод: Любительский (двухголосый закадровый) | Asian Miracle Group // Перевод: ФСГ 'S.W.A.T'
Субтитры: Английские (Rjgman56), китайские (Simplified и Traditional)
Оригинальная аудиодорожка: японский
Режиссер: Рё Мияваки / Ryo Miyawaki
В ролях:
Рё Ёсидзава, Юко Араки, Ёсукэ Сугино, Горо Киситани, Daimaô Kosaka, Кэнсэй Миками, Сиэри Охата, Рэйко Такасима, Рио Утида
Описание:
В детстве Сузуки Йори, Точибана Шизуко, Тоуджи Субару дали обещание стать знаменитыми, но Йори не смог сдержать его. После возвращения он встречает друзей детства. Что же будет с ним? Как отреагируют друзья на его приезд? Станет ли он звездой? Может ли дружба, зародившаяся ещё в детстве, перерасти во что-то большее?-| КиноПоиск | IMDb | Скачать сэмпл | Источник: none для рипа BDRip (7200p), за который спасибо [url=profile.php?mode=viewprofile&u=22488948]G00ba[/url] |-Качество видео: HDRip
Формат файла: AVI
Видео: 720x384 (1.85:1), 24 fps, XviD build 67 ~1772 kbps avg, 0.267 bit/pixel
Аудио 1: 48 kHz, AC3 Dolby Digital, 2/0 (L,R) ch, ~192 kbps | Двухголосый закадровый (Asian Miracle Group)
Отдельно:
Аудио 2: 48 kHz, AC3 Dolby Digital, 3/2 (L,C,R,l,r) + LFE ch, ~448 kbps | Японский
Формат файла субтитров: softsub (SRT)

MediaInfo

V.Plenu.2018.HDRip\V.Plenu.2018.HDRip.aviФормат файла : AVIФормат файла/Информация : Audio Video InterleaveРазмер файла : 1,37 ГбайтПродолжительность : 1 ч. 39 м.Общий поток : 1973 Кбит/секНазвание фильма : В плену / Ano ko no, Toriko (2018) HDRipРежиссёр : Рё Мияваки / Ryo MiyawakiЖанр : Комедия, мелодрамаПрограмма кодирования : VirtualDubMod 1.5.10.2 (build 2542/release)Формат файла оригинала/Имя : Художественный фильмАвторское право : Япония, Toriko MovieПримечание : Rip by vitolinform
ВидеоИдентификатор : 0Формат файла : MPEG-4 VisualПрофиль формата : Advanced Simple@L5Настройки формата : BVOP2Параметр BVOP формата : 2Параметр QPel формата : НетПараметр GMC формата : Без точки переходаПараметр матрицы формата : Default (MPEG)Идентификатор кодека : XVIDИдентификатор кодека/Подсказка : XviDПродолжительность : 1 ч. 39 м.Битрейт : 1772 Кбит/секШирина : 720 пикселейВысота : 384 пикселяСоотношение сторон : 1,85:1Частота кадров : 23,976 (24000/1001) кадра/секЦветовое пространство : YUVСубдискретизация насыщенности : 4:2:0Битовая глубина : 8 битТип развёртки : ПрогрессивнаяМетод сжатия : С потерямиБит/(Пиксели*Кадры) : 0.267Размер потока : 1,23 Гбайт (90%)Библиотека кодирования : XviD 67
АудиоИдентификатор : 1Формат файла : AC-3Формат файла/Информация : Audio Coding 3Коммерческое название : Dolby DigitalИдентификатор кодека : 2000Продолжительность : 1 ч. 39 м.Вид битрейта : ПостоянныйБитрейт : 192 Кбит/секКаналы : 2 каналаChannelLayout : L RЧастота : 48,0 КГцЧастота кадров : 31,250 кадров/сек (1536 SPF)Битовая глубина : 16 битМетод сжатия : С потерямиРазмер потока : 136 Мбайт (10%)Выравнивание : Разделение по промежуткамПродолжительность промежутка : 42 мс. (1,00 видеокадр)Время предзагрузки промежутка : 500 мс.Заголовок : Russian (DVO Asian Miracle Group)ServiceKind/String : Complete Main

Скриншоты

Цитата: Asian Miracle Group - озвучивали: Антонина Лазаревская, Тори Сенсэй


[geo-torrent.biz]_t_5769279.torrent
Torrent: Registered ·  [ 2019-08-23 20:12 ] ·  9d440705e9db52928bce2ff086a354750058994a

18 KB

Status: checked
Completed: 1 times
Size: 1.68 GB
Rating: 
(Votes: 0)
Say thanks: 0  Thanks
Похожие темы
[Profile]    [PM]
Display posts from previous:    
Reply to topic

The time now is: Today 03:55

All times are GMT + 7 Hours



You cannot post new topics in this forum
You cannot reply to topics in this forum
You cannot edit your posts in this forum
You cannot delete your posts in this forum
You cannot vote in polls in this forum
You cannot attach files in this forum
You can download files in this forum