Портрет буржуазии в чёрном / Гнездо змей / Ritratto di borghesia in nero / Nest of Vipers / Portrait of a Bourgeois in Black (Тонино Черви / Tonino Cervi) [1978, Италия, Драма, эротика, DVDRip-AVC] DVO + Sub Deu + Original Ita + Dub Deu

Reply to topic
DL-List and Torrent activity [Update пиров]
Size:  1.46 GB   |    Registered:  4 months 30 days   |    Completed:  1 time

Seeder not seen: 4 months 4 days

 
   
 
 
 
Author Message

Генри

Post 16-Jul-2019 23:23

[Quote]

Портрет буржуазии в чёрном / Гнездо змей / Ritratto di borghesia in nero / Nest of Vipers / Portrait of a Bourgeois in Black
Жанр: Драма, эротика
Страна: Италия
Студия: Mars Film
Год выхода: 1978
Продолжительность: 01:40:45
Перевод: Профессиональный (двухголосый закадровый)
Субтитры: немецкие
Оригинальная аудиодорожка: итальянский
Дубляж: немецкий
Режиссер: Тонино Черви / Tonino Cervi
В ролях:
Орнелла Мути / Ornella Muti ... Elena Mazzarini
Зента Бергер / Senta Berger ... Carla Richter
Капюсин / Capucine ... Amalia Mazzarini
Паоло Боначелли / Paolo Bonacelli ... Paolo Mazzarini
Мария Монти / Maria Monti ... Linda
Эрос Паньи / Eros Pagni ... Commissioner
Джанкарло Сбрагия / Giancarlo Sbragia ... Maffei
Стефано Патрици / Stefano Patrizi ... Mattia Morandi
Кристиан Борромео / Christian Borromeo ... Renato Richter
Маттиа Сбрагия / Mattia Sbragia ... Edoardo Mazzarini
Джулиана Каландра / Giuliana Calandra ... Teacher
Антония Канчелльери / Antonia Cancellieri ...
Сузанна Крезе Батеc / Suzanne Crese Bates ...
Раффаель Ди Марио / Raffaele Di Mario ...
Джанкарло Мэринэнджели / Giancarlo Marinangeli ...
Джованни Каэнаццо / Giovanni Caenazzo ...
Описание: По мотивам новеллы французского писателя Роже Пейрефитта (Roger Peyrefitte) "Учитель игры на фортепиано".
Венеция, 1938 год. Сюда приезжает студент Маттиа Моранди (Стефано Патрици), который выиграл стипендию для обучения в консерватории. Маттиа подружился с Ренато Рихтером (Кристиан Борромео) и вскоре становится любовником его матери, Карлы (Зента Бергер). Молодая вдова Рихтер, прекрасная пианистка, даёт частные уроки в доме богатой семьи Маццарини. Карла надеется, что её сын Ренато женится на их дочери, Елене Маццарини (Орнелла Мути). Но Елена влюбляется в Маттиа, и тот порывает с любовницей. Но Карла не может смириться ни с разрушением своих планов, ни с предательством любовника и придумывает разные способы мести...
Дополнительная информация:

Источник: none найден в сети.
pmv
Большое спасибо за:
- аудиодорожку с русской озвучкой - renege79 (Феникс)
- синхронизацию звуковой дорожки - pmv
IMDb = 6,5/10 (134) - http://www.imdb.com/title/tt0076628/
Кинопоиск = 6.164 (66) - http://www.kinopoisk.ru/film/220449/
ВНИМАНИЕ!!! РИП ФОРМАТА mkv (кодек H.264) ВОСПРОИЗВОДИТСЯ НЕ НА ВСЕХ БЫТОВЫХ ВИДЕОПЛЕЕРАХ!!!
ПРОСЬБА к СКАЧАВШИМ. НЕ УХОДИТЕ С РАЗДАЧИ, ПОМОГИТЕ ДРУГИМ СКАЧАТЬ!!!
Качество видео: DVDRip-AVC
Формат файла: MKV
Видео: AVC (H264), 720x384 (1.85:1), 25 fps, 1500 kbps, 0.231 Bits/Pixel
Аудио #1: AC3, 48 KHz, stereo (2 ch), 192 kbps – русский
Аудио #2: AC3, 48 KHz, stereo (2 ch), 192 kbps - немецкий
Аудио #3: AC3, 48 KHz, stereo (2 ch), 192 kbps - итальянский

MediaInfo

GeneralUnique ID : 3928189349994020889728805057068526735 (0x2F48AB01AB05575229052C0E1D7EC8F)Complete name : D:\torrents\Ritratto Di Borghesia In Nero (1978, rus_MVO+ger+ita+ger_sub).mkvFormat : MatroskaFormat version : Version 4 / Version 2File size : 1.46 GiBDuration : 1 h 40 minOverall bit rate : 2 079 kb/sEncoded date : UTC 2019-07-14 02:13:30Writing application : mkvmerge v35.0.0 ('All The Love In The World') 64-bitWriting library : libebml v1.3.9 + libmatroska v1.5.2
VideoID : 1Format : AVCFormat/Info : Advanced Video CodecFormat profile : High@L4.1Format settings, CABAC : YesFormat settings, RefFrames : 16 framesCodec ID : V_MPEG4/ISO/AVCDuration : 1 h 40 minBit rate : 1 500 kb/sWidth : 720 pixelsHeight : 384 pixelsDisplay aspect ratio : 1.85:1Frame rate mode : ConstantFrame rate : 25.000 FPSColor space : YUVChroma subsampling : 4:2:0Bit depth : 8 bitsScan type : ProgressiveBits/(Pixel*Frame) : 0.217Stream size : 1.06 GiB (72%)Writing library : x264 core 146 r2538 121396cEncoding settings : cabac=1 / ref=16 / deblock=1:0:0 / analyse=0x3:0x133 / me=umh / subme=10 / psy=1 / psy_rd=1.00:0.00 / mixed_ref=1 / me_range=24 / chroma_me=1 / trellis=2 / 8x8dct=1 / cqm=0 / deadzone=21,11 / fast_pskip=1 / chroma_qp_offset=-2 / threads=48 / lookahead_threads=3 / sliced_threads=0 / nr=0 / decimate=1 / interlaced=0 / bluray_compat=0 / constrained_intra=0 / bframes=8 / b_pyramid=2 / b_adapt=2 / b_bias=0 / direct=3 / weightb=1 / open_gop=0 / weightp=2 / keyint=250 / keyint_min=25 / scenecut=40 / intra_refresh=0 / rc_lookahead=60 / rc=2pass / mbtree=1 / bitrate=1500 / ratetol=1.0 / qcomp=0.60 / qpmin=0 / qpmax=69 / qpstep=4 / cplxblur=20.0 / qblur=0.5 / ip_ratio=1.40 / aq=1:1.00Language : ItalianDefault : YesForced : No
Audio #1ID : 2Format : AC-3Format/Info : Audio Coding 3Format settings, Endianness : BigCodec ID : A_AC3Duration : 1 h 40 minBit rate mode : ConstantBit rate : 192 kb/sChannel(s) : 2 channelsChannel positions : Front: L RSampling rate : 48.0 kHzFrame rate : 31.250 FPS (1536 SPF)Bit depth : 16 bitsCompression mode : LossyStream size : 138 MiB (9%)Language : RussianService kind : Complete MainDefault : YesForced : No
Audio #2ID : 3Format : AC-3Format/Info : Audio Coding 3Format settings, Endianness : BigCodec ID : A_AC3Duration : 1 h 40 minBit rate mode : ConstantBit rate : 192 kb/sChannel(s) : 2 channelsChannel positions : Front: L RSampling rate : 48.0 kHzFrame rate : 31.250 FPS (1536 SPF)Bit depth : 16 bitsCompression mode : LossyStream size : 138 MiB (9%)Language : GermanService kind : Complete MainDefault : NoForced : No
Audio #3ID : 4Format : AC-3Format/Info : Audio Coding 3Format settings, Endianness : BigCodec ID : A_AC3Duration : 1 h 40 minBit rate mode : ConstantBit rate : 192 kb/sChannel(s) : 2 channelsChannel positions : Front: L RSampling rate : 48.0 kHzFrame rate : 31.250 FPS (1536 SPF)Bit depth : 16 bitsCompression mode : LossyStream size : 138 MiB (9%)Language : ItalianService kind : Complete MainDefault : NoForced : No
TextID : 5Format : UTF-8Codec ID : S_TEXT/UTF8Codec ID/Info : UTF-8 Plain TextDuration : 1 h 38 minBit rate : 69 b/sCount of elements : 1054Stream size : 50.4 KiB (0%)Language : GermanDefault : NoForced : No

Скриншот c названием фильма

Источник: none с раздачей renege79 от 13-Апреля-2010

http:///forum/viewtopic.php?t=2894300
renege79, TVRip, 688х400, AVI, 796.4 MB ............................ < > ............................ CaCa48, DVDRip, 720x384, MKV, 1.46 GB









МОИ РАЗДАЧИ НА трекере: [url=tracker.php?rid=27390064]http:///forum/tracker.php?rid=27390064[/url]


[geo-torrent.biz]_t_5756056.torrent
Torrent: Registered ·  [ 2019-07-16 23:23 ] ·  f8f33b8b33af4a56edd53b6dd4d471ff3a69d6c4

15 KB

Status: checked
Completed: 1 times
Size: 1.46 GB
Rating: 
(Votes: 0)
Say thanks: 0  Thanks
Похожие темы
[Profile]    [PM]
Display posts from previous:    
Reply to topic

The time now is: Today 06:14

All times are GMT + 7 Hours



You cannot post new topics in this forum
You cannot reply to topics in this forum
You cannot edit your posts in this forum
You cannot delete your posts in this forum
You cannot vote in polls in this forum
You cannot attach files in this forum
You can download files in this forum