Аэроплан / Airplane! (Джим Эбрэхэмс / Jim Abrahams, Дэвид Цукер / David Zucker, Джерри Цукер / Jerry Zucker) [1980, США, комедия, приключения, BDRip] AVO (Андрей Гаврилов) + AVO (Алексей Михалев) + AVO (Василий Горчаков) + AVO (Леонид Володарский)

Reply to topic
DL-List and Torrent activity [Update пиров]
Size:  2.29 GB   |    Registered:  4 months 6 days   |    Completed:  0 times

Seeder not seen: Never

 
   
 
 
 
Author Message

КЭП

Post 12-Jun-2019 23:18

[Quote]

Аэроплан / Airplane!
Страна: США
Жанр: комедия, приключения
Год выхода: 1980
Продолжительность: 01:27:42
Перевод: Авторский (одноголосый закадровый) Андрей Гаврилов
Перевод 2: Авторский (одноголосый закадровый) Алексей Михалев
Перевод 3: Авторский (одноголосый закадровый) Василий Горчаков
Перевод 4: Авторский (одноголосый закадровый) Леонид Володарский (отдельно)
Субтитры: нет
Режиссер: Джим Эбрэхэмс / Jim Abrahams
В ролях: Роберт Хэйс, Джули Хэгерти, Питер Грейвз, Ллойд Бриджес, Лесли Нильсен, Карим Джаббар, Лорна Паттерсон, Роберт Стэк, Стивен Стакер
Описание: Нелегкая задача предстоит главному герою фильма, бывшему военному летчику Теду Страйкеру. Ужасные события из прошлого не дают Теду вновь сесть за штурвал самолета, когда-то он отправил на верную гибель свою эскадрилью, но сам сумел спастись и выжить. Оказавшись пассажиром на борту Боинга, экипаж которого получил пищевое отравление рыбой, Тед оказывается заложником замкнутого пространства и безысходности. Единственному человеку, умеющему управлять аэропланом приходится перебороть свой страх, неуверенность и посадить самолет с перепуганными пассажирами. Пока новый пилот с очаровательной помощницей будет управлять самолетом, доктор Рамек будет стараться успокоить паникующих пассажиров различными способами, иногда немного жестокими, но очень смешными....

Сэмпл: http://multi-up.com/1234407
Качество видео: BDRip (Источник: none Blu-ray disc 1080p)
Формат файла: AVI
Видео: XviD 73, 720x400, (16:9), 23.976 fps, 2241 Кбит/с, 8 бит, 0.32 bit/pixel
Аудио: Русский (АС3, 6 ch (Front: L C R, Side: L R, LFE), 48,0 KHz, 448 Kbps Андрей Гаврилов
Аудио 2: Русский (АС3, 6 ch (Front: L C R, Side: L R, LFE), 48,0 KHz, 384 Kbps Алексей Михалев
Аудио 3: Русский (АС3, 6 ch (Front: L C R, Side: L R, LFE), 48,0 KHz, 448 Kbps Василий Горчаков
Аудио 4: Русский (АС3, 2 ch (Front: L R), 48,0 KHz, 192 Kbps) Леонид Володарский (отдельно)

MediaInfo

ОбщееПолное имя : D:\Фильмы на трекер\Аэроплан_(комедия, приключения 1980 год)_Leonard_Lew\Аэроплан_(комедия, приключения 1980 год)_Leonard_Lew.aviФормат файла : AVIФормат файла/Информация : Audio Video InterleaveПрофиль формата : OpenDMLРазмер файла : 2,17 ГбайтПродолжительность : 1 ч. 27 м.Общий поток : 3544 Кбит/секПрограмма кодирования : VirtualDubMod 1.5.10.3 | www.virtualdub-fr.org || (build 2550/release)Библиотека кодирования : VirtualDubMod build 2550/release
ВидеоИдентификатор : 0Формат файла : MPEG-4 VisualПрофиль формата : Advanced Simple@L5Параметр BVOP формата : 2Параметр QPel формата : НетПараметр GMC формата : Без точки переходаПараметр матрицы формата : ВыборочнаяИдентификатор кодека : XVIDИдентификатор кодека/Подсказка : XviDПродолжительность : 1 ч. 27 м.Битрейт : 2241 Кбит/секШирина : 720 пикселейВысота : 400 пикселейСоотношение сторон : 16:9Частота кадров : 23,976 (23976/1000) кадра/секЦветовое пространство : YUVСубдискретизация насыщенности : 4:2:0Битовая глубина : 8 битТип развёртки : ПрогрессивнаяМетод сжатия : С потерямиБит/(Пиксели*Кадры) : 0.324Размер потока : 1,37 Гбайт (63%)Библиотека кодирования : XviD 73
Аудио #1Идентификатор : 1Формат файла : AC-3Формат файла/Информация : Audio Coding 3Расширение режима : CM (complete main)Параметр Endianness формата : BigИдентификатор кодека : 2000Продолжительность : 1 ч. 27 м.Вид битрейта : ПостоянныйБитрейт : 448 Кбит/секКаналы : 6 каналовРасположение каналов : Front: L C R, Side: L R, LFEЧастота : 48,0 КГцЧастота кадров : 31,250 кадров/сек (1536 spf)Метод сжатия : С потерямиРазмер потока : 281 Мбайт (13%)Выравнивание : Разделение по промежуткамПродолжительность промежутка : 42 мс. (1,00 видеокадр)Время предзагрузки промежутка : 500 мс.
Аудио #2Идентификатор : 2Формат файла : AC-3Формат файла/Информация : Audio Coding 3Расширение режима : CM (complete main)Параметр Endianness формата : BigИдентификатор кодека : 2000Продолжительность : 1 ч. 27 м.Вид битрейта : ПостоянныйБитрейт : 384 Кбит/секКаналы : 6 каналовРасположение каналов : Front: L C R, Side: L R, LFEЧастота : 48,0 КГцЧастота кадров : 31,250 кадров/сек (1536 spf)Метод сжатия : С потерямиРазмер потока : 241 Мбайт (11%)Выравнивание : Разделение по промежуткамПродолжительность промежутка : 42 мс. (1,00 видеокадр)Время предзагрузки промежутка : 500 мс.
Аудио #3Идентификатор : 3Формат файла : AC-3Формат файла/Информация : Audio Coding 3Расширение режима : CM (complete main)Параметр Endianness формата : BigИдентификатор кодека : 2000Продолжительность : 1 ч. 27 м.Вид битрейта : ПостоянныйБитрейт : 448 Кбит/секКаналы : 6 каналовРасположение каналов : Front: L C R, Side: L R, LFEЧастота : 48,0 КГцЧастота кадров : 31,250 кадров/сек (1536 spf)Метод сжатия : С потерямиРазмер потока : 281 Мбайт (13%)Выравнивание : Разделение по промежуткамПродолжительность промежутка : 42 мс. (1,00 видеокадр)Время предзагрузки промежутка : 500 мс.

Скриншот c названием фильма

Скриншоты



[geo-torrent.biz]_t_5743795.torrent
Torrent: Registered ·  [ 2019-06-12 23:18 ] ·  71573c524a14a77799c7d330b6117c85442b2353

12 KB

Status: checked
Completed: 0 times
Size: 2.29 GB
Rating: 
(Votes: 0)
Say thanks: 0  Thanks
Похожие темы
[Profile]    [PM]
Display posts from previous:    
Reply to topic

The time now is: Today 06:58

All times are GMT + 7 Hours



You cannot post new topics in this forum
You cannot reply to topics in this forum
You cannot edit your posts in this forum
You cannot delete your posts in this forum
You cannot vote in polls in this forum
You cannot attach files in this forum
You can download files in this forum