От Корлеоне до Бруклина / Da Corleone a Brooklyn / From Corleone to Brooklyn / The Sicilian Boss (Умберто Ленци / Umberto Lenzi) [1979, Италия, криминал, DVDRip] DVO + Original Ita

Reply to topic
DL-List and Torrent activity [Update пиров]
Size:  1.46 GB   |    Registered:  4 months 2 days   |    Completed:  0 times

Seeder not seen: Never

 
   
 
 
 
Author Message

КЭП

Post 12-Jun-2019 22:15

[Quote]

От Корлеоне до Бруклина / Da Corleone a Brooklyn / From Corleone to Brooklyn / The Sicilian Boss
Страна: Италия
Жанр: криминал
Год выхода: 1979
Продолжительность: 01:31:38
Перевод: Профессиональный (двухголосый закадровый)
Субтитры: нет
Оригинальная аудиодорожка: итальянский

Режиссер: Умберто Ленци / Umberto Lenzi
В ролях: Маурицио Мерли, Марио Мерола, Ван Джонсон, Венантино Венантини, Сониа Вивиани, Лаура Белли, Сальваторе Билла, Лука Барбарески, Уго Болонья, Джованни Чанфрилья, Том Фелени, Оттавиано дель'Аккуа, Микки Нокс, Фульвио Мингоцци
Описание: Подозрительный иностранец скрывается в Нью-Йорке после убийства босса сицилийской мафии. Комиссар Берни старается сделать всё возможное для депортации преступника в Италию и передачи его правосудию. А для суда необходимо присутствие оставшегося в живых свидетеля, мелкого хулигана из Нью-Йорка. Так начинается путешествие свидетеля и полицейского через Атлантику...
Сэмпл
Качество видео: DVDRip
Формат файла: AVI
Видео: 704x304 (2.32:1), 25 fps, XviD build 73 ~1880 kbps avg, 0.35 bit/pixel
Аудио: 48 kHz, AC3 Dolby Digital, 2/0 (L,R) ch, ~192 kbps - многоголосый
Аудио: 48 kHz, AC3 Dolby Digital, 2/0 (L,R) ch, ~192 kbps - оригинал

MediaInfo

GeneralComplete name : H:\From.Corleone.to.Brooklyn.1979.DVDRip_[1.46]_[teko].aviFormat : AVIFormat/Info : Audio Video InterleaveFile size : 1.46 GiBDuration : 1h 31mnOverall bit rate : 2 275 KbpsWriting application : VirtualDubMod 1.5.10.3 | www.virtualdub-fr.org || (build 2550/release)Writing library : VirtualDubMod build 2550/release
VideoID : 0Format : MPEG-4 VisualFormat profile : Advanced Simple@L5Format settings, BVOP : 2Format settings, QPel : NoFormat settings, GMC : No warppointsFormat settings, Matrix : CustomCodec ID : XVIDCodec ID/Hint : XviDDuration : 1h 31mnBit rate : 1 882 KbpsWidth : 704 pixelsHeight : 304 pixelsDisplay aspect ratio : 2.35:1Frame rate : 25.000 fpsColor space : YUVChroma subsampling : 4:2:0Bit depth : 8 bitsScan type : ProgressiveCompression mode : LossyBits/(Pixel*Frame) : 0.352Stream size : 1.20 GiB (83%)Writing library : XviD 73
Audio #1ID : 1Format : AC-3Format/Info : Audio Coding 3Mode extension : CM (complete main)Format settings, Endianness : BigCodec ID : 2000Duration : 1h 31mnBit rate mode : ConstantBit rate : 192 KbpsChannel(s) : 2 channelsChannel positions : Front: L RSampling rate : 48.0 KHzFrame rate : 31.250 fps (1536 spf)Compression mode : LossyStream size : 126 MiB (8%)Alignment : Split accross interleavesInterleave, duration : 40 ms (1.00 video frame)Interleave, preload duratio : 500 ms
Audio #2ID : 2Format : AC-3Format/Info : Audio Coding 3Mode extension : CM (complete main)Format settings, Endianness : BigCodec ID : 2000Duration : 1h 29mnBit rate mode : ConstantBit rate : 192 KbpsChannel(s) : 2 channelsChannel positions : Front: L RSampling rate : 48.0 KHzFrame rate : 31.250 fps (1536 spf)Compression mode : LossyStream size : 122 MiB (8%)Alignment : Split accross interleavesInterleave, duration : 41 ms (1.03 video frame)Interleave, preload duratio : 500 ms

Скриншоты

:--


[geo-torrent.biz]_t_5743766.torrent
Torrent: Registered ·  [ 2019-06-12 22:15 ] ·  bc7834f7fcb78c47bc68b93546edd0da90a7136f

15 KB

Status: checked
Completed: 0 times
Size: 1.46 GB
Rating: 
(Votes: 0)
Say thanks: 0  Thanks
Похожие темы
[Profile]    [PM]
Display posts from previous:    
Reply to topic

The time now is: Today 08:36

All times are GMT + 7 Hours



You cannot post new topics in this forum
You cannot reply to topics in this forum
You cannot edit your posts in this forum
You cannot delete your posts in this forum
You cannot vote in polls in this forum
You cannot attach files in this forum
You can download files in this forum