[TR24][OF] Nucleus - Entity - 2019 (Death Metal)

Reply to topic
DL-List and Torrent activity [Update пиров]
Size:  441 MB   |    Registered:  4 months 2 days   |    Completed:  0 times

Seeder not seen: Never

 
   
 
 
 
Author Message

Mak

Post 12-Jun-2019 20:06

[Quote]


Nucleus

Entity



• Формат файла записи | Источник записи: [TR24][OF]
• Наличие водяных знаков: Нет
• Год издания релиза: 2019
• Жанр: Death Metal
• Продолжительность: 00:38:26
• Источник: none internet
• WEB ссылка
• Формат файла: FLAC (*.flac)
• Тип рипа: tracks
• Разрядность: 24/44,1
• Формат файла: WAV (flac.ape.wv)
• Количество каналов: 2.0
• Наличие сканов: front

01 - Arrival (00:06:32)
02 - Entity (00:04:29)
03 - Uplift (00:05:09)
04 - Mobilization (00:04:48)
05 - Approach (00:03:29)
06 - Outpost (00:03:51)
07 - Dominion (00:05:40)
08 - Timechasm (00:04:24)
-

• Замер динамического диапазона •

foobar2000 1.4.2 / Dynamic Range Meter 1.1.1log date: 2019-06-12 08:16:37
--------------------------------------------------------------------------------Analyzed: Nucleus / Entity--------------------------------------------------------------------------------
DR Peak RMS Duration Track--------------------------------------------------------------------------------DR10 -0.10 dB -11.08 dB 6:32 01-ArrivalDR10 -0.10 dB -10.80 dB 4:30 02-EntityDR10 -0.10 dB -10.78 dB 5:09 03-UpliftDR10 -0.10 dB -11.13 dB 4:49 04-MobilizationDR10 -0.10 dB -11.29 dB 3:30 05-ApproachDR10 -0.10 dB -10.86 dB 3:51 06-OutpostDR10 -0.10 dB -10.93 dB 5:40 07-DominionDR10 -0.50 dB -11.56 dB 4:25 08-Timechasm--------------------------------------------------------------------------------
Number of tracks: 8Official DR value: DR10
Samplerate: 44100 HzChannels: 2Bits per sample: 24Bitrate: 1570 kbpsCodec: FLAC================================================================================
-


[geo-torrent.biz]_t_5743637.torrent
Torrent: Registered ·  [ 2019-06-12 20:06 ] ·  98e5fec8d8d9355d0b45623fde04e49ec8655667

18 KB

Status: checked
Completed: 0 times
Size: 441 MB
Rating: 
(Votes: 0)
Say thanks: 0  Thanks
Похожие темы
[Profile]    [PM]
Display posts from previous:    
Reply to topic

The time now is: Today 08:47

All times are GMT + 7 Hours



You cannot post new topics in this forum
You cannot reply to topics in this forum
You cannot edit your posts in this forum
You cannot delete your posts in this forum
You cannot vote in polls in this forum
You cannot attach files in this forum
You can download files in this forum