[TR24][OF] Kingdom - Rotting Carcass Arise Upon the Burial Mound - 2019 (Death Metal)

Reply to topic
DL-List and Torrent activity [Update пиров]
Size:  405 MB   |    Registered:  4 months 2 days   |    Completed:  0 times

Seeder not seen: Never

 
   
 
 
 
Author Message

Mak

Post 12-Jun-2019 20:06

[Quote]


Kingdom

Rotting Carcass Arise Upon the Burial Mound



• Формат файла записи | Источник записи: [TR24][OF]
• Наличие водяных знаков: Нет
• Год издания релиза: 2019
• Жанр: Death Metal
• Продолжительность: 00:33:03
• Источник: none internet
• WEB ссылка
• Формат файла: FLAC (*.flac)
• Тип рипа: tracks
• Разрядность: 24/44,1
• Формат файла: WAV (flac.ape.wv)
• Количество каналов: 2.0
• Наличие сканов: front

01 - Dark Light Rising (00:02:48)
02 - Świątynia Zepsucia (00:04:46)
03 - Zatracony W Obłędzie (00:02:03)
04 - Cadaver Purgatory (00:03:36)
05 - Rotting Carcass Arisen (00:05:03)
06 - Otchłań Zapomnienia (00:04:05)
07 - Burial Mound (00:03:30)
08 - Echo Duszy Utraconej (00:01:35)
09 - Devourer Of Light (00:02:13)
10 - Baphomet's Throne (Samael Cover) (00:03:19)
-

• Замер динамического диапазона •

foobar2000 1.4.2 / Dynamic Range Meter 1.1.1log date: 2019-06-12 08:20:37
--------------------------------------------------------------------------------Analyzed: Kingdom / Rotting Carcass Arise Upon the Burial Mound--------------------------------------------------------------------------------
DR Peak RMS Duration Track--------------------------------------------------------------------------------DR5 -0.13 dB -5.86 dB 2:48 01-Dark Light RisingDR5 -0.13 dB -5.94 dB 4:47 02-Świątynia ZepsuciaDR5 -0.13 dB -6.77 dB 2:03 03-Zatracony w ObłędzieDR5 -0.13 dB -5.35 dB 3:36 04-Cadaver PurgatoryDR5 -0.09 dB -6.61 dB 5:04 05-Rotting Carcass ArisenDR5 -0.13 dB -6.00 dB 4:06 06-Otchłań ZapomnieniaDR5 -0.13 dB -5.84 dB 3:30 07-Burial MoundDR14 -0.24 dB -18.26 dB 1:36 08-Echo Duszy UtraconejDR5 -0.13 dB -5.58 dB 2:14 09-Devourer of LightDR5 -0.13 dB -6.14 dB 3:20 10-Baphomet's Throne (Samael Cover)--------------------------------------------------------------------------------
Number of tracks: 10Official DR value: DR6
Samplerate: 44100 HzChannels: 2Bits per sample: 24Bitrate: 1749 kbpsCodec: FLAC================================================================================
-


[geo-torrent.biz]_t_5743639.torrent
Torrent: Registered ·  [ 2019-06-12 20:06 ] ·  b2abe8cc1c335c56523fbec69102b2b4df1b5f53

17 KB

Status: checked
Completed: 0 times
Size: 405 MB
Rating: 
(Votes: 0)
Say thanks: 0  Thanks
Похожие темы
[Profile]    [PM]
Display posts from previous:    
Reply to topic

The time now is: Today 08:57

All times are GMT + 7 Hours



You cannot post new topics in this forum
You cannot reply to topics in this forum
You cannot edit your posts in this forum
You cannot delete your posts in this forum
You cannot vote in polls in this forum
You cannot attach files in this forum
You can download files in this forum