[TR24][OF] Emperor Guillotine - Chrononaut - 2019 (Stoner | Doom Metal)

Reply to topic
DL-List and Torrent activity [Update пиров]
Size:  327 MB   |    Registered:  4 months 2 days   |    Completed:  0 times

Seeder not seen: Never

 
   
 
 
 
Author Message

Mak

Post 12-Jun-2019 20:06

[Quote]


Emperor Guillotine

Chrononaut



• Формат файла записи | Источник записи: [TR24][OF]
• Наличие водяных знаков: Нет
• Год издания релиза: 2019
• Жанр: Stoner | Doom Metal
• Продолжительность: 00:28:07
• Источник: none BC
• WEB ссылка
• Формат файла: FLAC (*.flac)
• Тип рипа: tracks
• Разрядность: 24/44,1
• Формат файла: WAV (flac.ape.wv)
• Количество каналов: 2.0
• Наличие сканов: front

01 - The Chrononaut (00:10:10)
02 - The Sorceress (00:10:20)
03 - The Dreaming City (00:02:45)
04 - Weird Of The White Wolf (00:04:49)
-

• Замер динамического диапазона •

foobar2000 1.4.2 / Dynamic Range Meter 1.1.1log date: 2019-06-12 08:38:03
--------------------------------------------------------------------------------Analyzed: Emperor Guillotine / Chrononaut--------------------------------------------------------------------------------
DR Peak RMS Duration Track--------------------------------------------------------------------------------DR8 -0.31 dB -9.86 dB 10:11 01-The ChrononautDR6 -0.31 dB -7.37 dB 10:21 02-The SorceressDR11 -0.30 dB -12.83 dB 2:46 03-The Dreaming CityDR4 -0.10 dB -5.39 dB 4:50 04-Weird of the White Wolf--------------------------------------------------------------------------------
Number of tracks: 4Official DR value: DR7
Samplerate: 44100 HzChannels: 2Bits per sample: 24Bitrate: 1798 kbpsCodec: FLAC================================================================================
-


[geo-torrent.biz]_t_5743644.torrent
Torrent: Registered ·  [ 2019-06-12 20:06 ] ·  9937fd69e3ee8aed1a20b474804d27e9d467c685

14 KB

Status: checked
Completed: 0 times
Size: 327 MB
Rating: 
(Votes: 0)
Say thanks: 0  Thanks
Похожие темы
[Profile]    [PM]
Display posts from previous:    
Reply to topic

The time now is: Today 09:08

All times are GMT + 7 Hours



You cannot post new topics in this forum
You cannot reply to topics in this forum
You cannot edit your posts in this forum
You cannot delete your posts in this forum
You cannot vote in polls in this forum
You cannot attach files in this forum
You can download files in this forum