[TR24][OF] Catacombe - Scintilla - 2019 (Post-Rock | Ambient)

Reply to topic
DL-List and Torrent activity [Update пиров]
Size:  516 MB   |    Registered:  4 months 2 days   |    Completed:  0 times

Seeder not seen: Never

 
   
 
 
 
Author Message

Mak

Post 12-Jun-2019 20:06

[Quote]


Catacombe

Scintilla



• Формат файла записи | Источник записи: [TR24][OF]
• Наличие водяных знаков: Нет
• Год издания релиза: 2019
• Жанр: Post-Rock | Ambient
• Продолжительность: 00:45:21
• Источник: none internet
• WEB ссылка
• Формат файла: FLAC (*.flac)
• Тип рипа: tracks
• Разрядность: 24/44,1
• Формат файла: WAV (flac.ape.wv)
• Количество каналов: 2.0
• Наличие сканов: front

01 - Carrossel (00:06:24)
02 - Esquizo (00:05:28)
03 - Sparkles (00:03:02)
04 - Reverie (00:07:30)
05 - Alvor (00:07:10)
06 - Balada (00:05:57)
07 - Arruda (00:04:49)
08 - Faux Pas (00:04:58)
-

• Замер динамического диапазона •

foobar2000 1.4.2 / Dynamic Range Meter 1.1.1log date: 2019-06-12 09:09:02
--------------------------------------------------------------------------------Analyzed: Catacombe / Scintilla--------------------------------------------------------------------------------
DR Peak RMS Duration Track--------------------------------------------------------------------------------DR7 -0.20 dB -10.03 dB 6:25 01-CarrosselDR8 -0.20 dB -10.38 dB 5:29 02-EsquizoDR9 -0.20 dB -11.81 dB 3:02 03-SparklesDR7 -0.20 dB -10.23 dB 7:30 04-ReverieDR7 -0.20 dB -9.81 dB 7:10 05-AlvorDR8 -0.20 dB -11.69 dB 5:57 06-BaladaDR7 -0.20 dB -10.54 dB 4:50 07-ArrudaDR7 -0.20 dB -9.39 dB 4:58 08-Faux Pas--------------------------------------------------------------------------------
Number of tracks: 8Official DR value: DR8
Samplerate: 44100 HzChannels: 2Bits per sample: 24Bitrate: 1585 kbpsCodec: FLAC================================================================================
-


[geo-torrent.biz]_t_5743656.torrent
Torrent: Registered ·  [ 2019-06-12 20:06 ] ·  cd9642175e5e71792a71064f93893ebbd9cca4ae

11 KB

Status: checked
Completed: 0 times
Size: 516 MB
Rating: 
(Votes: 0)
Say thanks: 0  Thanks
Похожие темы
[Profile]    [PM]
Display posts from previous:    
Reply to topic

The time now is: Today 09:20

All times are GMT + 7 Hours



You cannot post new topics in this forum
You cannot reply to topics in this forum
You cannot edit your posts in this forum
You cannot delete your posts in this forum
You cannot vote in polls in this forum
You cannot attach files in this forum
You can download files in this forum