(Electronic, Ambient) [CD] Consortium I (Vincent F. Evans Tim Gerwing Besart Hysniu) - Blue Planet - 2000, FLAC (image+.cue), lossless

Reply to topic
DL-List and Torrent activity [Update пиров]
Size:  363 MB   |    Registered:  4 months 6 days   |    Completed:  0 times

Seeder not seen: Never

 
   
 
 
 
Author Message

Пушистый

Post 12-Jun-2019 14:44

[Quote]

Consortium I (Vincent F. Evans Tim Gerwing Besart Hysniu) / Blue Planet
Жанр: Electronic, Ambient
Носитель: CD
Страна-производитель диска (релиза): Canada
Год издания: 2000
Издатель (лейбл): E.V. Channel Eau Communications
Аудиокодек: FLAC (*.flac)
Тип рипа: image+.cue
Продолжительность: 01:14:08
Источник: собственный рип
Наличие сканов в содержимом раздачи: нет
Треклист:
1. Kokoro (TG = Tim Gerwing) 3:16
2. Inuit 2 (TG) 6:10
3. Renshenfengwangjiang (VFE = Vincent F. Evans) 4:08
4. Visions of My Homeland (BH = Besart Hysniu) 3:11
5. Blue Planet (TG) 4:01
6. Beyond the Dharma Gate (VFE) 5:11
7. Kosova (BH) 3:59
8. EVA I (TG) 1:19
9. Satellite UpLink (TG) 2:46
10. Hall of Mirrors (VFE) 3:55
11. Causeway (TG) 2:50
12. Tandara Mandara (BH) 2:16
13. EVA II (TG) 2:32
14. 6.31 (TG) 3:02
15. Twin Rainbows Over Highway 93 (VFE) 12:46
16. Northern Wilderness (BH / TG) 12:44

Лог создания рипа

Exact Audio Copy V1.1 from 23. June 2015
EAC extraction logfile from 18. April 2019, 11:00
Consortium I (Vincent F. Evans / Tim Gerwing / Besart Hysniu) / Blue Planet
Used drive : PIONEER BD-RW BDR-208M Adapter: 1 ID: 0
Read mode : SecureUtilize accurate stream : YesDefeat audio cache : YesMake use of C2 pointers : No
Read offset correction : 667Overread into Lead-In and Lead-Out : NoFill up missing offset samples with silence : YesDelete leading and trailing silent blocks : NoNull samples used in CRC calculations : YesUsed interface : Native Win32 interface for Win NT & 2000
Used output format : User Defined EncoderSelected bitrate : 1024 kBit/sQuality : HighAdd ID3 tag : NoCommand line compressor : C:\Program Files (x86)\Exact Audio Copy\Flac\flac.exeAdditional command line options : -V -8 -T "Date=%year%" -T "Genre=%genre%" %source%
TOC of the extracted CD
Track | Start | Length | Start sector | End sector --------------------------------------------------------- 1 | 0:00.00 | 3:16.06 | 0 | 14705 2 | 3:16.06 | 6:10.06 | 14706 | 42461 3 | 9:26.12 | 4:08.12 | 42462 | 61073 4 | 13:34.24 | 3:11.06 | 61074 | 75404 5 | 16:45.30 | 4:01.06 | 75405 | 93485 6 | 20:46.36 | 5:10.63 | 93486 | 116798 7 | 25:57.24 | 3:59.06 | 116799 | 134729 8 | 29:56.30 | 1:19.06 | 134730 | 140660 9 | 31:15.36 | 2:46.37 | 140661 | 153147 10 | 34:01.73 | 3:55.06 | 153148 | 170778 11 | 37:57.04 | 2:50.06 | 170779 | 183534 12 | 40:47.10 | 2:16.06 | 183535 | 193740 13 | 43:03.16 | 2:32.15 | 193741 | 205155 14 | 45:35.31 | 3:02.06 | 205156 | 218811 15 | 48:37.37 | 12:45.70 | 218812 | 276256 16 | 61:23.32 | 12:44.16 | 276257 | 333572
Range status and errors
Selected range
Filename C:\Users\jean-mini\Music\Consortium I (Vincent F. Evans , Tim Gerwing , Besart Hysniu) - Blue Planet.wav
Peak level 100.0 % Extraction speed 7.8 X Range quality 100.0 % Test CRC 99E181AA Copy CRC 99E181AA Copy OK
No errors occurred
AccurateRip summary
Track 1 not present in databaseTrack 2 not present in databaseTrack 3 not present in databaseTrack 4 not present in databaseTrack 5 not present in databaseTrack 6 not present in databaseTrack 7 not present in databaseTrack 8 not present in databaseTrack 9 not present in databaseTrack 10 not present in databaseTrack 11 not present in databaseTrack 12 not present in databaseTrack 13 not present in databaseTrack 14 not present in databaseTrack 15 not present in databaseTrack 16 not present in database
None of the tracks are present in the AccurateRip database
End of status report
---- CUETools DB Plugin V2.1.6
[CTDB TOCID: HcM6FOYVekpnBBHRm7CKkH5smxU-] foundSubmit result: HcM6FOYVekpnBBHRm7CKkH5smxU- has been confirmedTrack | CTDB Status 1 | (1/1) Accurately ripped 2 | (1/1) Accurately ripped 3 | (1/1) Accurately ripped 4 | (1/1) Accurately ripped 5 | (1/1) Accurately ripped 6 | (1/1) Accurately ripped 7 | (1/1) Accurately ripped 8 | (1/1) Accurately ripped 9 | (1/1) Accurately ripped 10 | (1/1) Accurately ripped 11 | (1/1) Accurately ripped 12 | (1/1) Accurately ripped 13 | (1/1) Accurately ripped 14 | (1/1) Accurately ripped 15 | (1/1) Accurately ripped 16 | (1/1) Accurately ripped
==== Log checksum 5F07B32B638597028284C4406F1735C644629F1E5E99F50FEFABC31FBF4279DB ====
Доп. информация:


[geo-torrent.biz]_t_5743652.torrent
Torrent: Registered ·  [ 2019-06-12 14:44 ] ·  6d8dd084f06d5dd246d33da424991955698a1f0c

15 KB

Status: checked
Completed: 0 times
Size: 363 MB
Rating: 
(Votes: 0)
Say thanks: 0  Thanks
Похожие темы
[Profile]    [PM]
Display posts from previous:    
Reply to topic

The time now is: Today 07:09

All times are GMT + 7 Hours



You cannot post new topics in this forum
You cannot reply to topics in this forum
You cannot edit your posts in this forum
You cannot delete your posts in this forum
You cannot vote in polls in this forum
You cannot attach files in this forum
You can download files in this forum