[UKR] (Funk, Hip-Hop, Reggae, Alternative) [CD] Бумбокс - Коллекция - 2005-2013 (7 CD), FLAC (image+.cue), lossless

Reply to topic
DL-List and Torrent activity [Update пиров]
Size:  2.74 GB   |    Registered:  4 months 6 days   |    Completed:  0 times

Seeder not seen: Never

 
   
 
 
 
Author Message

Мых

Post 12-Jun-2019 11:37

[Quote]

Бумбокс / Коллекция
Жанр: Funk, Hip-Hop, Reggae, Alternative
Носитель: CD
Страна-производитель диска (релиза): Russia
Год издания: 2005-2013
Страна исполнителя (группы): Ukraine
Аудиокодек: FLAC (*.flac)
Тип рипа: image+.cue
Продолжительность: 05:31:45
Источник: собственный рип
Наличие сканов в содержимом раздачи: да

КоллекцияБумбокс - 2005 - Меломанія (MT 715391-893-1) [0:43:29]

1. Бета-Каротин [3:21]
2. День [4:41]
3. Діагноз [3:33]
4. E-mail [3:34]
5. Гайки З Ямайки [4:16]
6. Почути [4:38]
7. Рожеві Сиропи [3:16]
8. Супер-пупер [2:56]
9. Одна [4:32]
10. Бобік [3:22]
11. Зима [4:30]

EAC Log

Exact Audio Copy V1.3 from 2. September 2016
EAC extraction logfile from 24. May 2019, 23:35
Бумбокс / Меломанія
Used drive : MATSHITADVD-RAM UJ-841S Adapter: 1 ID: 0
Read mode : SecureUtilize accurate stream : YesDefeat audio cache : YesMake use of C2 pointers : No
Read offset correction : 102Overread into Lead-In and Lead-Out : NoFill up missing offset samples with silence : YesDelete leading and trailing silent blocks : NoNull samples used in CRC calculations : YesUsed interface : Native Win32 interface for Win NT & 2000
Used output format : User Defined EncoderSelected bitrate : 128 kBit/sQuality : HighAdd ID3 tag : NoCommand line compressor : C:\Program Files\Exact Audio Copy\Flac\flac.exeAdditional command line options : -V -8 -T "Date=%year%" -T "Genre=%genre%" %source%
TOC of the extracted CD
Track | Start | Length | Start sector | End sector --------------------------------------------------------- 1 | 0:00.00 | 3:21.16 | 0 | 15090 2 | 3:21.16 | 4:40.40 | 15091 | 36130 3 | 8:01.56 | 3:33.31 | 36131 | 52136 4 | 11:35.12 | 3:34.31 | 52137 | 68217 5 | 15:09.43 | 4:16.01 | 68218 | 87418 6 | 19:25.44 | 4:38.05 | 87419 | 108273 7 | 24:03.49 | 3:15.50 | 108274 | 122948 8 | 27:19.24 | 2:56.04 | 122949 | 136152 9 | 30:15.28 | 4:31.72 | 136153 | 156549 10 | 34:47.25 | 3:22.05 | 156550 | 171704 11 | 38:09.30 | 4:29.57 | 171705 | 191936 12 | 45:11.12 | 15:58.53 | 203337 | 275239
Range status and errors
Selected range
Filename C:\Zloslaw\Бумбокс - 2005 - Меломанія (MT 715391-893-1)\Бумбокс - Меломанія.wav
Peak level 97.7 % Extraction speed 3.7 X Range quality 100.0 % Test CRC 21ACB146 Copy CRC 21ACB146 Copy OK
No errors occurred
AccurateRip summary
Track 1 accurately ripped (confidence 1) [E58AFD5A] (AR v2)Track 2 accurately ripped (confidence 1) [D10A258D] (AR v2)Track 3 accurately ripped (confidence 1) [BF9344C8] (AR v2)Track 4 accurately ripped (confidence 1) [679043FD] (AR v2)Track 5 accurately ripped (confidence 1) [F753A7DA] (AR v2)Track 6 accurately ripped (confidence 1) [5C114EC7] (AR v2)Track 7 accurately ripped (confidence 1) [DA591C70] (AR v2)Track 8 accurately ripped (confidence 1) [1DF88635] (AR v2)Track 9 accurately ripped (confidence 1) [1600013E] (AR v2)Track 10 accurately ripped (confidence 1) [38DD385E] (AR v2)Track 11 accurately ripped (confidence 1) [86F383A6] (AR v2)
All tracks accurately ripped
End of status report
---- CUETools DB Plugin V2.1.6
[CTDB TOCID: iPyqb8crAvORei3fUJLte1OCZMs-] foundSubmit result: iPyqb8crAvORei3fUJLte1OCZMs- has been confirmedTrack | CTDB Status 1 | (3/3) Accurately ripped 2 | (3/3) Accurately ripped 3 | (3/3) Accurately ripped 4 | (3/3) Accurately ripped 5 | (3/3) Accurately ripped 6 | (3/3) Accurately ripped 7 | (3/3) Accurately ripped 8 | (3/3) Accurately ripped 9 | (3/3) Accurately ripped 10 | (3/3) Accurately ripped 11 | (3/3) Accurately ripped
==== Log checksum 4CC9925CE62CA88736CFFA5306238C0E22591D52608610FB6EAE44F9F0F0C79A ====

Бумбокс - 2006 - Family Бізнес (MT 715391-892-1) [0:42:20]

1. Ким Ми Були [3:39]
2. Королева [3:23]
3. Hip-hop [3:49]
4. Вахтёрам [4:01]
5. Зцапала Злапала [3:23]
6. Квіти В Волоссі [3:59]
7. Віддаю [3:07]
8. Хоттабыч [4:36]
9. Нездара [4:23]
10. Хвилюватися Немає Причин [4:42]
11. Happy End [3:19]

EAC Log

Exact Audio Copy V1.3 from 2. September 2016
EAC extraction logfile from 25. May 2019, 0:03
Бумбокс / Family Бізнес
Used drive : MATSHITADVD-RAM UJ-841S Adapter: 1 ID: 0
Read mode : SecureUtilize accurate stream : YesDefeat audio cache : YesMake use of C2 pointers : No
Read offset correction : 102Overread into Lead-In and Lead-Out : NoFill up missing offset samples with silence : YesDelete leading and trailing silent blocks : NoNull samples used in CRC calculations : YesUsed interface : Native Win32 interface for Win NT & 2000
Used output format : User Defined EncoderSelected bitrate : 128 kBit/sQuality : HighAdd ID3 tag : NoCommand line compressor : C:\Program Files\Exact Audio Copy\Flac\flac.exeAdditional command line options : -V -8 -T "Date=%year%" -T "Genre=%genre%" %source%
TOC of the extracted CD
Track | Start | Length | Start sector | End sector --------------------------------------------------------- 1 | 0:00.00 | 3:38.38 | 0 | 16387 2 | 3:38.38 | 3:22.53 | 16388 | 31590 3 | 7:01.16 | 3:49.04 | 31591 | 48769 4 | 10:50.20 | 4:00.51 | 48770 | 66820 5 | 14:50.71 | 3:23.37 | 66821 | 82082 6 | 18:14.33 | 3:58.59 | 82083 | 99991 7 | 22:13.17 | 3:07.21 | 99992 | 114037 8 | 25:20.38 | 4:36.13 | 114038 | 134750 9 | 29:56.51 | 4:22.58 | 134751 | 154458 10 | 34:19.34 | 4:41.45 | 154459 | 175578 11 | 39:01.04 | 3:19.09 | 175579 | 190512 12 | 44:52.13 | 24:15.31 | 201913 | 311068
Range status and errors
Selected range
Filename C:\Zloslaw\Бумбокс - 2006 - Family Бізнес (MT 715391-892-1)\Бумбокс - Family Бізнес.wav
Peak level 98.8 % Extraction speed 3.7 X Range quality 100.0 % Test CRC 8A40379C Copy CRC 8A40379C Copy OK
No errors occurred
AccurateRip summary
Track 1 not present in databaseTrack 2 not present in databaseTrack 3 not present in databaseTrack 4 not present in databaseTrack 5 not present in databaseTrack 6 not present in databaseTrack 7 not present in databaseTrack 8 not present in databaseTrack 9 not present in databaseTrack 10 not present in databaseTrack 11 not present in database
None of the tracks are present in the AccurateRip database
End of status report
---- CUETools DB Plugin V2.1.6
[CTDB TOCID: E1B.kjpHqW_KHKfUbG9wUeqnOT0-] foundSubmit result: E1B.kjpHqW_KHKfUbG9wUeqnOT0- has been confirmedTrack | CTDB Status 1 | (3/4) Accurately ripped 2 | (4/4) Accurately ripped 3 | (4/4) Accurately ripped 4 | (4/4) Accurately ripped 5 | (4/4) Accurately ripped 6 | (4/4) Accurately ripped 7 | (4/4) Accurately ripped 8 | (4/4) Accurately ripped 9 | (4/4) Accurately ripped 10 | (4/4) Accurately ripped 11 | (4/4) Accurately ripped
==== Log checksum 213911564BFC99BDB9CF323AA847D52864FDF56FE649D165F43E453E9F16BF42 ====

Бумбокс - 2008 - III (МТ 1000294-083-1) [0:59:09]

1. Концерти [4:11]
2. Стяги На Стяги [3:17]
3. Поліна [4:22]
4. Наодинці [4:19]
5. Cash-бабулєс [4:28]
6. Тримай [3:49]
7. Та4то [3:27]
8. TNT [3:45]
9. Быть Самим Собой [3:51]
10. Що Ти Зміг [4:15]
11. Eva [3:35]
12. Тримай (Версия "Босса") [4:51]
13. Та4то (Диджей Tapolsky&Redco) [3:32]
14. Та4то (Диджей Tonique Le DeeJay) [3:16]
15. Наодинцi (Диджей Tapolsky&Redco) [4:09]

EAC Log

Exact Audio Copy V1.3 from 2. September 2016
EAC extraction logfile from 25. May 2019, 12:44
Бумбокс / III
Used drive : MATSHITADVD-RAM UJ-841S Adapter: 1 ID: 0
Read mode : SecureUtilize accurate stream : YesDefeat audio cache : YesMake use of C2 pointers : No
Read offset correction : 102Overread into Lead-In and Lead-Out : NoFill up missing offset samples with silence : YesDelete leading and trailing silent blocks : NoNull samples used in CRC calculations : YesUsed interface : Native Win32 interface for Win NT & 2000
Used output format : User Defined EncoderSelected bitrate : 128 kBit/sQuality : HighAdd ID3 tag : NoCommand line compressor : C:\Program Files\Exact Audio Copy\Flac\flac.exeAdditional command line options : -V -8 -T "Date=%year%" -T "Genre=%genre%" %source%
TOC of the extracted CD
Track | Start | Length | Start sector | End sector --------------------------------------------------------- 1 | 0:00.00 | 4:10.49 | 0 | 18798 2 | 4:10.49 | 3:17.11 | 18799 | 33584 3 | 7:27.60 | 4:22.24 | 33585 | 53258 4 | 11:50.09 | 4:19.25 | 53259 | 72708 5 | 16:09.34 | 4:28.11 | 72709 | 92819 6 | 20:37.45 | 3:49.32 | 92820 | 110026 7 | 24:27.02 | 3:27.04 | 110027 | 125555 8 | 27:54.06 | 3:45.09 | 125556 | 142439 9 | 31:39.15 | 3:50.62 | 142440 | 159751 10 | 35:30.02 | 4:14.74 | 159752 | 178875 11 | 39:45.01 | 3:34.55 | 178876 | 194980 12 | 43:19.56 | 4:51.03 | 194981 | 216808 13 | 48:10.59 | 3:32.17 | 216809 | 232725 14 | 51:43.01 | 3:16.20 | 232726 | 247445 15 | 54:59.21 | 4:09.25 | 247446 | 266145 16 | 61:40.46 | 7:27.64 | 277546 | 311134
Range status and errors
Selected range
Filename C:\Zloslaw\Бумбокс - 2008 - III (МТ 1000294-083-1)\Бумбокс - III.wav
Peak level 100.0 % Extraction speed 2.6 X Range quality 100.0 % Test CRC 5601CAD6 Copy CRC 5601CAD6 Copy OK
No errors occurred
AccurateRip summary
Track 1 accurately ripped (confidence 2) [5B5685FE] (AR v1)Track 2 accurately ripped (confidence 2) [21B0429F] (AR v1)Track 3 accurately ripped (confidence 2) [5ECFE640] (AR v1)Track 4 accurately ripped (confidence 2) [4E9EF77F] (AR v1)Track 5 accurately ripped (confidence 2) [A64A20BC] (AR v1)Track 6 accurately ripped (confidence 2) [4B18531B] (AR v1)Track 7 accurately ripped (confidence 2) [70021435] (AR v1)Track 8 accurately ripped (confidence 2) [557D9384] (AR v1)Track 9 accurately ripped (confidence 2) [388C33AF] (AR v1)Track 10 accurately ripped (confidence 2) [E606C755] (AR v1)Track 11 accurately ripped (confidence 2) [8F92ED97] (AR v1)Track 12 accurately ripped (confidence 2) [C9B2B790] (AR v1)Track 13 accurately ripped (confidence 2) [89D87740] (AR v1)Track 14 accurately ripped (confidence 2) [6138AB4D] (AR v1)Track 15 accurately ripped (confidence 2) [89F40D2F] (AR v1)
All tracks accurately ripped
End of status report
---- CUETools DB Plugin V2.1.6
[CTDB TOCID: bJ5fug1R.e52oR_OUijCRXHghUw-] foundSubmit result: bJ5fug1R.e52oR_OUijCRXHghUw- has been confirmedTrack | CTDB Status 1 | (3/3) Accurately ripped 2 | (3/3) Accurately ripped 3 | (3/3) Accurately ripped 4 | (3/3) Accurately ripped 5 | (3/3) Accurately ripped 6 | (3/3) Accurately ripped 7 | (3/3) Accurately ripped 8 | (3/3) Accurately ripped 9 | (3/3) Accurately ripped 10 | (3/3) Accurately ripped 11 | (3/3) Accurately ripped 12 | (3/3) Accurately ripped 13 | (3/3) Accurately ripped 14 | (3/3) Accurately ripped 15 | (3/3) Accurately ripped
==== Log checksum 090DFD23D4A1AAEF8DC822E3FAC1F25C1CC099F83333D4E45C0B5880A3967845 ====

Бумбокс & Tonique Le DeeJay - 2009 - Бленды, миксы и другие музыкальные пародии (МТ 000410-223-1) [0:45:20]

1. Що Ти Змiг [4:44]
2. Концерти [3:06]
3. Одна [5:02]
4. Стяги На Стяги [3:38]
5. Быть Самим Собой [3:33]
6. Хоттабыч [3:49]
7. Наодинцi [3:49]
8. Королева [3:26]
9. Полiна [3:39]
10. Вахтерам [3:52]
11. Та4то [3:15]
12. Come Around [3:27]

EAC Log

Exact Audio Copy V1.3 from 2. September 2016
EAC extraction logfile from 25. May 2019, 0:37
Бумбокс/Tonique Le DeeJay / Бленды, миксы и другие музыкальные пародии
Used drive : MATSHITADVD-RAM UJ-841S Adapter: 1 ID: 0
Read mode : SecureUtilize accurate stream : YesDefeat audio cache : YesMake use of C2 pointers : No
Read offset correction : 102Overread into Lead-In and Lead-Out : NoFill up missing offset samples with silence : YesDelete leading and trailing silent blocks : NoNull samples used in CRC calculations : YesUsed interface : Native Win32 interface for Win NT & 2000
Used output format : User Defined EncoderSelected bitrate : 128 kBit/sQuality : HighAdd ID3 tag : NoCommand line compressor : C:\Program Files\Exact Audio Copy\Flac\flac.exeAdditional command line options : -V -8 -T "Date=%year%" -T "Genre=%genre%" %source%
TOC of the extracted CD
Track | Start | Length | Start sector | End sector --------------------------------------------------------- 1 | 0:00.00 | 4:43.44 | 0 | 21268 2 | 4:43.44 | 3:06.30 | 21269 | 35248 3 | 7:49.74 | 5:01.65 | 35249 | 57888 4 | 12:51.64 | 3:38.19 | 57889 | 74257 5 | 16:30.08 | 3:32.70 | 74258 | 90227 6 | 20:03.03 | 3:49.07 | 90228 | 107409 7 | 23:52.10 | 3:49.22 | 107410 | 124606 8 | 27:41.32 | 3:26.14 | 124607 | 140070 9 | 31:07.46 | 3:39.09 | 140071 | 156504 10 | 34:46.55 | 3:51.52 | 156505 | 173881 11 | 38:38.32 | 3:14.59 | 173882 | 188490 12 | 41:53.16 | 3:26.72 | 188491 | 204012
Range status and errors
Selected range
Filename C:\Zloslaw\Бумбокс & Tonique Le DeeJay - 2009 - Бленды, миксы и другие музыкальные пародии (МТ 000410-223-1)\Бумбокс,Tonique Le DeeJay - Бленды, миксы и другие музыкальные пародии.wav
Peak level 99.7 % Extraction speed 3.8 X Range quality 100.0 % Test CRC BD48F2CC Copy CRC BD48F2CC Copy OK
No errors occurred
AccurateRip summary
Track 1 not present in databaseTrack 2 not present in databaseTrack 3 not present in databaseTrack 4 not present in databaseTrack 5 not present in databaseTrack 6 not present in databaseTrack 7 not present in databaseTrack 8 not present in databaseTrack 9 not present in databaseTrack 10 not present in databaseTrack 11 not present in databaseTrack 12 not present in database
None of the tracks are present in the AccurateRip database
End of status report
---- CUETools DB Plugin V2.1.6
[CTDB TOCID: _QVYnSJX6gN6S1UUjYK5whhA.HA-] foundSubmit result: _QVYnSJX6gN6S1UUjYK5whhA.HA- has been confirmedTrack | CTDB Status 1 | (1/1) Accurately ripped 2 | (1/1) Accurately ripped 3 | (1/1) Accurately ripped 4 | (1/1) Accurately ripped 5 | (1/1) Accurately ripped 6 | (1/1) Accurately ripped 7 | (1/1) Accurately ripped 8 | (1/1) Accurately ripped 9 | (1/1) Accurately ripped 10 | (1/1) Accurately ripped 11 | (1/1) Accurately ripped 12 | (1/1) Accurately ripped
==== Log checksum 26FBD97282CE63F0E17A4761F5B6E681AFEE5A65A1C18C5AE16268B463D55114 ====

Бумбокс - 2010 - Всё Включено (МТ 000410-404-1) [0:42:39]

1. Я Твой [3:31]
2. Холода.нет [3:07]
3. Hip-Hop [3:49]
4. Стяги На Стяги [3:44]
5. Бета-Каротин [4:02]
6. Тримай [3:53]
7. Cash-Бабулес [4:02]
8. Що Ти Змiг [4:13]
9. Квiти В Волоссi [5:34]
10. Звёзды Не Ездят В Метро [3:21]
11. Летний Дождь [3:22]

EAC Log

Exact Audio Copy V1.3 from 2. September 2016
EAC extraction logfile from 25. May 2019, 14:07
Бумбокс / Всё Включено
Used drive : MATSHITADVD-RAM UJ-841S Adapter: 1 ID: 0
Read mode : SecureUtilize accurate stream : YesDefeat audio cache : YesMake use of C2 pointers : No
Read offset correction : 102Overread into Lead-In and Lead-Out : NoFill up missing offset samples with silence : YesDelete leading and trailing silent blocks : NoNull samples used in CRC calculations : YesUsed interface : Native Win32 interface for Win NT & 2000
Used output format : User Defined EncoderSelected bitrate : 128 kBit/sQuality : HighAdd ID3 tag : NoCommand line compressor : C:\Program Files\Exact Audio Copy\Flac\flac.exeAdditional command line options : -V -8 -T "Date=%year%" -T "Genre=%genre%" %source%
TOC of the extracted CD
Track | Start | Length | Start sector | End sector --------------------------------------------------------- 1 | 0:00.00 | 3:30.56 | 0 | 15805 2 | 3:30.56 | 3:06.72 | 15806 | 29827 3 | 6:37.53 | 3:49.15 | 29828 | 47017 4 | 10:26.68 | 3:44.33 | 47018 | 63850 5 | 14:11.26 | 4:02.16 | 63851 | 82016 6 | 18:13.42 | 3:53.15 | 82017 | 99506 7 | 22:06.57 | 4:02.33 | 99507 | 117689 8 | 26:09.15 | 4:12.45 | 117690 | 136634 9 | 30:21.60 | 5:34.19 | 136635 | 161703 10 | 35:56.04 | 3:21.05 | 161704 | 176783 11 | 39:17.09 | 3:21.52 | 176784 | 191910
Range status and errors
Selected range
Filename C:\Zloslaw\Бумбокс - 2010 - Всё Включено (МТ 000410-404-1)\Бумбокс - Всё Включено.wav
Peak level 100.0 % Extraction speed 2.3 X Range quality 100.0 % Test CRC 52FF5801 Copy CRC 52FF5801 Copy OK
No errors occurred
AccurateRip summary
Track 1 accurately ripped (confidence 1) [A1EF83C4] (AR v1)Track 2 accurately ripped (confidence 1) [61CFC86E] (AR v1)Track 3 accurately ripped (confidence 1) [6C7648EB] (AR v1)Track 4 accurately ripped (confidence 1) [3B2A3B8B] (AR v1)Track 5 accurately ripped (confidence 1) [12D83353] (AR v1)Track 6 accurately ripped (confidence 1) [AFF330F2] (AR v1)Track 7 accurately ripped (confidence 1) [75EE9456] (AR v1)Track 8 accurately ripped (confidence 1) [9DA46313] (AR v1)Track 9 accurately ripped (confidence 1) [F6511146] (AR v1)Track 10 accurately ripped (confidence 1) [03A1E350] (AR v1)Track 11 accurately ripped (confidence 1) [2BC31A61] (AR v1)
All tracks accurately ripped
End of status report
---- CUETools DB Plugin V2.1.6
[CTDB TOCID: QVXR0jGB64tm9wK8rfjDfguJmxE-] foundSubmit result: QVXR0jGB64tm9wK8rfjDfguJmxE- has been confirmedTrack | CTDB Status 1 | (2/2) Accurately ripped 2 | (2/2) Accurately ripped 3 | (2/2) Accurately ripped 4 | (2/2) Accurately ripped 5 | (2/2) Accurately ripped 6 | (2/2) Accurately ripped 7 | (2/2) Accurately ripped 8 | (2/2) Accurately ripped 9 | (2/2) Accurately ripped 10 | (2/2) Accurately ripped 11 | (2/2) Accurately ripped
==== Log checksum 7FF19A4E12297605785CEBEC73E91C4852365BD0B798FE6583CF6A1263AE541F ====

Бумбокс - 2011 - Середній Вік (Музика Для Мас) [0:42:55]

1. Немає ТБ [3:29]
2. За Буйки [4:32]
3. Nevertheless [3:41]
4. Звьоздочка [3:28]
5. Fall [3:48]
6. Крапка [3:18]
7. Этажи [4:22]
8. A S P [4:07]
9. Брехня [4:06]
10. Пошла Вон [3:27]
11. Самольотік [4:36]

EAC Log

Exact Audio Copy V1.3 from 2. September 2016
EAC extraction logfile from 25. May 2019, 14:53
Бумбокс / Середній Вік
Used drive : MATSHITADVD-RAM UJ-841S Adapter: 1 ID: 0
Read mode : SecureUtilize accurate stream : YesDefeat audio cache : YesMake use of C2 pointers : No
Read offset correction : 102Overread into Lead-In and Lead-Out : NoFill up missing offset samples with silence : YesDelete leading and trailing silent blocks : NoNull samples used in CRC calculations : YesUsed interface : Native Win32 interface for Win NT & 2000
Used output format : User Defined EncoderSelected bitrate : 128 kBit/sQuality : HighAdd ID3 tag : NoCommand line compressor : C:\Program Files\Exact Audio Copy\Flac\flac.exeAdditional command line options : -V -8 -T "Date=%year%" -T "Genre=%genre%" %source%
TOC of the extracted CD
Track | Start | Length | Start sector | End sector --------------------------------------------------------- 1 | 0:00.00 | 3:28.69 | 0 | 15668 2 | 3:28.69 | 4:31.63 | 15669 | 36056 3 | 8:00.57 | 3:40.68 | 36057 | 52624 4 | 11:41.50 | 3:28.36 | 52625 | 68260 5 | 15:10.11 | 3:47.73 | 68261 | 85358 6 | 18:58.09 | 3:18.30 | 85359 | 100238 7 | 22:16.39 | 4:22.20 | 100239 | 119908 8 | 26:38.59 | 4:07.16 | 119909 | 138449 9 | 30:46.00 | 4:05.58 | 138450 | 156882 10 | 34:51.58 | 3:27.13 | 156883 | 172420 11 | 38:18.71 | 4:36.34 | 172421 | 193154
Range status and errors
Selected range
Filename C:\Zloslaw\Бумбокс - 2011 - Середній Вік (Музика Для Мас)\Бумбокс - Середній Вік.wav
Peak level 100.0 % Extraction speed 2.3 X Range quality 100.0 % Test CRC E43EC9F7 Copy CRC E43EC9F7 Copy OK
No errors occurred
AccurateRip summary
Track 1 not present in databaseTrack 2 not present in databaseTrack 3 not present in databaseTrack 4 not present in databaseTrack 5 not present in databaseTrack 6 not present in databaseTrack 7 not present in databaseTrack 8 not present in databaseTrack 9 not present in databaseTrack 10 not present in databaseTrack 11 not present in database
None of the tracks are present in the AccurateRip database
End of status report
---- CUETools DB Plugin V2.1.6
[CTDB TOCID: 0QcWDfqy6NWpfoArGj7A9Kgc6C0-] foundSubmit result: 0QcWDfqy6NWpfoArGj7A9Kgc6C0- has been confirmedTrack | CTDB Status 1 | (1/1) Accurately ripped 2 | (1/1) Accurately ripped 3 | (1/1) Accurately ripped 4 | (1/1) Accurately ripped 5 | (1/1) Accurately ripped 6 | (1/1) Accurately ripped 7 | (1/1) Accurately ripped 8 | (1/1) Accurately ripped 9 | (1/1) Accurately ripped 10 | (1/1) Accurately ripped 11 | (1/1) Accurately ripped
==== Log checksum A1F7FF248A431099132B116FBBCCFC86C308413EC933E9A8C9808F75A142645F ====

Бумбокс - 2013 - Термiнал Б (GL10798) [0:42:42]

1. Коля [3:51]
2. Дурень [4:12]
3. Шукай [4:42]
4. На Ви [4:20]
5. Дитина [4:05]
6. Номєр Скрит [2:41]
7. Пєпєл [3:58]
8. Етім Лєтом [3:40]
9. Нє На Кого Пєнять [3:43]
10. Ти Одна [4:18]
11. Кохана [3:13]

EAC Log

Exact Audio Copy V1.3 from 2. September 2016
EAC extraction logfile from 25. May 2019, 15:44
Бумбокс / Термiнал Б
Used drive : MATSHITADVD-RAM UJ-841S Adapter: 1 ID: 0
Read mode : SecureUtilize accurate stream : YesDefeat audio cache : YesMake use of C2 pointers : No
Read offset correction : 102Overread into Lead-In and Lead-Out : NoFill up missing offset samples with silence : YesDelete leading and trailing silent blocks : NoNull samples used in CRC calculations : YesUsed interface : Native Win32 interface for Win NT & 2000
Used output format : User Defined EncoderSelected bitrate : 128 kBit/sQuality : HighAdd ID3 tag : NoCommand line compressor : C:\Program Files\Exact Audio Copy\Flac\flac.exeAdditional command line options : -V -8 -T "Date=%year%" -T "Genre=%genre%" %source%
TOC of the extracted CD
Track | Start | Length | Start sector | End sector --------------------------------------------------------- 1 | 0:00.00 | 3:50.47 | 0 | 17296 2 | 3:50.47 | 4:12.02 | 17297 | 36198 3 | 8:02.49 | 4:41.69 | 36199 | 57342 4 | 12:44.43 | 4:19.68 | 57343 | 76835 5 | 17:04.36 | 4:04.63 | 76836 | 95198 6 | 21:09.24 | 2:40.47 | 95199 | 107245 7 | 23:49.71 | 3:57.55 | 107246 | 125075 8 | 27:47.51 | 3:39.70 | 125076 | 141570 9 | 31:27.46 | 3:42.41 | 141571 | 158261 10 | 35:10.12 | 4:17.68 | 158262 | 177604 11 | 39:28.05 | 3:13.37 | 177605 | 192116 12 | 45:13.42 | 23:20.40 | 203517 | 308556
Range status and errors
Selected range
Filename C:\Zloslaw\Бумбокс - 2013 - Термiнал Б (GL10798)\Бумбокс - Термiнал Б.wav
Peak level 98.8 % Extraction speed 2.4 X Range quality 100.0 % Test CRC A2C6BEAD Copy CRC A2C6BEAD Copy OK
No errors occurred
AccurateRip summary
Track 1 not present in databaseTrack 2 not present in databaseTrack 3 not present in databaseTrack 4 not present in databaseTrack 5 not present in databaseTrack 6 not present in databaseTrack 7 not present in databaseTrack 8 not present in databaseTrack 9 not present in databaseTrack 10 not present in databaseTrack 11 not present in database
None of the tracks are present in the AccurateRip database
End of status report
---- CUETools DB Plugin V2.1.6
[CTDB TOCID: mBUDJBWuOW0DNKQEOTl3SfqYZKs-] disk not present in databaseSubmit result: mBUDJBWuOW0DNKQEOTl3SfqYZKs- has been uploaded
==== Log checksum B2D11F952D126052E166ECB6874BE60B36B8C93E28F6D88F7816EBB8FE667882 ====


[geo-torrent.biz]_t_5743553.torrent
Torrent: Registered ·  [ 2019-06-12 11:37 ] ·  d43ae6ec3b8b8f2623f3a29264e1bce83fd6d6c7

29 KB

Status: checked
Completed: 0 times
Size: 2.74 GB
Rating: 
(Votes: 0)
Say thanks: 0  Thanks
Похожие темы
[Profile]    [PM]
Display posts from previous:    
Reply to topic

The time now is: Today 06:53

All times are GMT + 7 Hours



You cannot post new topics in this forum
You cannot reply to topics in this forum
You cannot edit your posts in this forum
You cannot delete your posts in this forum
You cannot vote in polls in this forum
You cannot attach files in this forum
You can download files in this forum