Кроткая / Une femme douce (Робер Брессон / Robert Bresson) [1969, Франция, драма, TVRip-AVC] Sub Rus, Eng + Original Fra

Reply to topic
DL-List and Torrent activity [Update пиров]
Size:  850 MB   |    Registered:  4 months 3 days   |    Completed:  0 times

Seeder not seen: Never

 
   
 
 
 
Author Message

Мых

Post 11-Jun-2019 10:36

[Quote]

Кроткая / Une femme douce
Страна: Франция
Жанр: драма
Год выхода: 1969
Продолжительность: 01:25:01
Перевод: Субтитры (Seandy)
Субтитры: русские, английские
Оригинальная аудиодорожка: французский
Режиссер: Робер Брессон / Robert Bresson
В ролях: Доминик Санда, Ги Франжен, Джейн Лобр, Клод Оллье, Жак Кебадян, Жиль Сандье, Доротея Бланк и др.
Описание: Cбивчивый монолог мужчины у безжизненного тела его молодой жены, за несколько часов перед этим выбросившейся из окна. По мотивам одноименного рассказа Ф.М. Достоевского.
Доп. информация: Рип с mpeg2-захвата ТВ-трансляции "Кроткой", найденного на KG (thx aloysius70). Французская аудиодорожка, а также русские и английские субтитры взяты из старого интерлейсного рипа с нарушенной последовательностью кадров, в качестве замены коего мой рип и предлагается. Ниже под спойлерами приведены сравнения моего рипа с исходным mpeg2 и со старым рипом. согласован с модератором tеko.
Источник: none vs. мой рип

ps Если вдруг кому интересно, вот список использованных при кодировании фильтров:
-vf "crop=674:432:18:73,yadif,hqdn3d=1:0.5:1"
мой рип vs. старый рип

Сэмпл: http://sendfile.su/1498039
Качество видео: TVRip-AVC
Формат файла: MKV
Видео: AVC, 674x432 ~> 720x432 (5:3), 25.000 FPS, 1 115 kb/s
Аудио: French, MP3, 44.1 kHz, 256 kb/s, 2 channels
Формат файла субтитров: softsub (SRT)

MediaInfo

GeneralUnique ID : 192358359753973641581511879026541915872 (0x90B6DF5CD66B952C9E75A73FA294EEE0)Complete name : Robert Bresson - Une femme douce (1969).mkvFormat : MatroskaFormat version : Version 2File size : 850 MiBDuration : 1 h 25 minOverall bit rate mode : VariableOverall bit rate : 1 398 kb/sEncoded date : UTC 2019-06-04 02:37:14Writing application : mkvmerge v4.1.1 ('Bouncin' Back') built on Jul 3 2010 22:54:08Writing library : libebml v1.0.0 + libmatroska v1.0.0 / Lavf55.26.100
VideoID : 1Format : AVCFormat/Info : Advanced Video CodecFormat profile : High@L4.1Format settings : CABAC / 9 Ref FramesFormat settings, CABAC : YesFormat settings, Reference frames : 9 framesCodec ID : V_MPEG4/ISO/AVCDuration : 1 h 25 minBit rate : 1 115 kb/sWidth : 674 pixelsHeight : 432 pixelsDisplay aspect ratio : 5:3Frame rate mode : ConstantFrame rate : 25.000 FPSColor space : YUVChroma subsampling : 4:2:0Bit depth : 8 bitsScan type : ProgressiveBits/(Pixel*Frame) : 0.153Stream size : 678 MiB (80%)Writing library : x264 core 142 r2389 956c8d8Encoding settings : cabac=1 / ref=9 / deblock=1:0:0 / analyse=0x3:0x133 / me=umh / subme=9 / psy=1 / psy_rd=1.00:0.00 / mixed_ref=1 / me_range=24 / chroma_me=1 / trellis=2 / 8x8dct=1 / cqm=0 / deadzone=21,11 / fast_pskip=1 / chroma_qp_offset=-2 / threads=3 / lookahead_threads=1 / sliced_threads=0 / nr=0 / decimate=1 / interlaced=0 / bluray_compat=0 / constrained_intra=0 / bframes=9 / b_pyramid=2 / b_adapt=2 / b_bias=0 / direct=3 / weightb=1 / open_gop=0 / weightp=2 / keyint=250 / keyint_min=25 / scenecut=40 / intra_refresh=0 / rc_lookahead=60 / rc=crf / mbtree=1 / crf=17.0 / qcomp=0.60 / qpmin=0 / qpmax=69 / qpstep=4 / ip_ratio=1.40 / aq=1:1.00Default : YesForced : No
AudioID : 2Format : MPEG AudioFormat version : Version 1Format profile : Layer 3Format settings : Joint stereo / MS StereoMuxing mode : Header strippingCodec ID : A_MPEG/L3Codec ID/Hint : MP3Duration : 1 h 25 minBit rate mode : VariableBit rate : 256 kb/sChannel(s) : 2 channelsSampling rate : 44.1 kHzFrame rate : 38.281 FPS (1152 SPF)Compression mode : LossyDelay relative to video : -80 msStream size : 156 MiB (18%)Language : FrenchDefault : YesForced : No
Text #1ID : 3Format : UTF-8Codec ID : S_TEXT/UTF8Codec ID/Info : UTF-8 Plain TextLanguage : RussianDefault : YesForced : No
Text #2ID : 4Format : UTF-8Codec ID : S_TEXT/UTF8Codec ID/Info : UTF-8 Plain TextLanguage : EnglishDefault : NoForced : No

Скриншот c названием фильма

Скриншоты




[geo-torrent.biz]_t_5740591.torrent
Torrent: Registered ·  [ 2019-06-11 10:36 ] ·  347415c63f07aa612b042fa6b77e9c2be5dc0060

17 KB

Status: checked
Completed: 0 times
Size: 850 MB
Rating: 
(Votes: 0)
Say thanks: 0  Thanks
Похожие темы
[Profile]    [PM]
Display posts from previous:    
Reply to topic

The time now is: Today 08:50

All times are GMT + 7 Hours



You cannot post new topics in this forum
You cannot reply to topics in this forum
You cannot edit your posts in this forum
You cannot delete your posts in this forum
You cannot vote in polls in this forum
You cannot attach files in this forum
You can download files in this forum