[TR24][OF][WEB] Rainforest Spiritual Enslavement - Panama Canal Left-Hand Path (EP) - 2019 (Abstract, Dark Ambient, Downtempo)

Reply to topic
DL-List and Torrent activity [Update пиров]
Size:  428 MB   |    Registered:  4 months 9 days   |    Completed:  0 times

Seeder not seen: Never

 
   
 
 
 
Author Message

Кейт

Post 10-Jun-2019 02:17

[Quote]

Rainforest Spiritual Enslavement - Panama Canal Left-Hand Path (ЕР) - 2019- Жанр: Abstract, Dark Ambient, Downtempo
Носитель: WEB
Наличие водяных знаков: Нет
Издание: EP
Страна-производитель диска (релиза): US
Год издания: 2019
Издатель (лейбл): Hospital Productions
Номер по каталогу: HOS-634
Аудиокодек: FLAC (*.flac)
Тип рипа: tracks
Битрейт аудио: lossless
Продолжительность: 00:41:36
Источник (релизер): http://rainforestspiritualenslavement.bandcamp.com/album/panama-canal-left-hand-path
Наличие сканов в содержимом раздачи: нет-Треклист:
01. Hunting Down Individual Mosquitoes
02. Isthmus Dark Arts (Electricity Arcs Through Rain)
03. Demons Tour The Canal
04. The Mountain Didn’t Want To Be Cut And The Mountain Fought Back Part 1 (Corpses In Mudslides Still Obtain Fever)
05. The Mountain Didn’t Want To Be Cut And The Mountain Fought Back Part 2 (Fever Waits Inside The Concrete Canal Locks)
-Формат файла: FLAC (*.flac)
Тип рипа: tracks
Разрядность: 24/48
Формат файла: WAV (flac.ape.wv)
Количество каналов: 2.0

Лог проверки качества

foobar2000 1.3.17 / Замер динамического диапазона (DR) 1.1.1Дата отчёта: 2019-06-09 15:40:54
--------------------------------------------------------------------------------Анализ: Rainforest Spiritual Enslavement / Panama Canal Left-Hand Path--------------------------------------------------------------------------------
DR Пики RMS Продолжительность трека--------------------------------------------------------------------------------DR10 -0.96 дБ -14.21 дБ 7:03 01-Hunting Down Individual MosquitoesDR9 -0.77 дБ -10.91 дБ 4:39 02-Isthmus Dark Arts (Electricity Arcs Through Rain)DR9 -0.76 дБ -10.95 дБ 4:50 03-Demons Tour The CanalDR11 -0.67 дБ -14.72 дБ 14:04 04-The Mountain Didn’t Want To Be Cut And The Mountain Fought Back Part 1 (Corpses In Mudslides Still Obtain Fever)DR13 -0.82 дБ -16.69 дБ 11:00 05-The Mountain Didn’t Want To Be Cut And The Mountain Fought Back Part 2 (Fever Waits Inside The Concrete Canal Locks)--------------------------------------------------------------------------------
Количество треков: 5Реальные значения DR: DR11
Частота: 48000 ГцКаналов: 2Разрядность: 24Битрейт: 1445 кбит/сКодек: FLAC================================================================================

Скриншот спектра частот

01. Hunting Down Individual Mosquitoes 02. Isthmus Dark Arts (Electricity Arcs Through Rain) 03. Demons Tour The Canal 04. The Mountain Didn’t Want To Be Cut And The Mountain Fought Back Part 1 (Corpses In Mudslides Still Obtain Fever) 05. The Mountain Didn’t Want To Be Cut And The Mountain Fought Back Part 2 (Fever Waits Inside The Concrete Canal Locks)

Доп. информация

Источник: nonehttp://rainforestspiritualenslavement.bandcamp.com/album/panama-canal-left-hand-pathhttp://www.discogs.com/ru/Rainforest-Spiritual-Enslavement-Panama-Canal-Left-Han...release/13541748
предоставлен rodeu, за что ему громадная благодарность
Дискография в MP3, 320 kbpsКоллекция (6 релизов) во FLAC


[geo-torrent.biz]_t_5742705.torrent
Torrent: Registered ·  [ 2019-06-10 02:17 ] ·  46bf27598b6f588e6572fb39cb0f6b8f2b542d42

18 KB

Status: checked
Completed: 0 times
Size: 428 MB
Rating: 
(Votes: 0)
Say thanks: 0  Thanks
Похожие темы
[Profile]    [PM]
Display posts from previous:    
Reply to topic

The time now is: Today 06:58

All times are GMT + 7 Hours



You cannot post new topics in this forum
You cannot reply to topics in this forum
You cannot edit your posts in this forum
You cannot delete your posts in this forum
You cannot vote in polls in this forum
You cannot attach files in this forum
You can download files in this forum