[TR24][OF] Savage Messiah - Demons - 2019 (Thrash Power Metal)

Reply to topic
DL-List and Torrent activity [Update пиров]
Size:  576 MB   |    Registered:  4 months 27 days   |    Completed:  1 time

Seeder not seen: 4 months 24 days

 
   
 
 
 
Author Message

Mak

Post 18-May-2019 23:20

[Quote]

Savage Messiah - Demons- Формат файла / Источник записи: [TR24][OF]
Наличие водяных знаков: Нет
Год издания: 2019
Жанр: Thrash Power Metal
Издатель-лейбл: Century Media
Продолжительность: 00:44:59
Наличие сканов: Нет
Формат файла: FLAC (*.flac)
Тип рипа: tracks
Разрядность: 24/48
Формат файла: PCM
Количество каналов: 2.0
Источник: интернет

Треклист:
01. Virtue Signal (4:09)
02. What Dreams May Come (3:59)
03. Heretic in the Modern World (4:10)
04. Parachute (4:01)
05. Under No Illusions (4:10)
06. Down and Out (3:59)
07. The Lights Are Going Out (5:12)
08. The Bitter Truth (4:04)
09. Until the Shadows Fall (4:08)
10. Rise Then Fall (3:11)
11. Steal the Faith in Me (3:56)

Лог проверки качества

foobar2000 1.4.3 / Замер динамического диапазона (DR) 1.1.1Дата отчёта: 2019-05-18 15:54:15
--------------------------------------------------------------------------------Анализ: Savage Messiah / Demons--------------------------------------------------------------------------------
DR Пики RMS Продолжительность трека--------------------------------------------------------------------------------DR10 -1.02 дБ -11.70 дБ 4:09 01-Virtue SignalDR10 -1.02 дБ -12.38 дБ 3:59 02-What Dreams May ComeDR10 -1.02 дБ -11.54 дБ 4:10 03-Heretic in the Modern WorldDR10 -1.02 дБ -12.66 дБ 4:01 04-ParachuteDR10 -1.02 дБ -11.69 дБ 4:10 05-Under No IllusionsDR10 -1.02 дБ -12.22 дБ 3:59 06-Down and OutDR11 -1.03 дБ -13.45 дБ 5:12 07-The Lights Are Going OutDR9 -1.02 дБ -11.41 дБ 4:04 08-The Bitter TruthDR10 -1.04 дБ -12.24 дБ 4:08 09-Until the Shadows FallDR10 -1.02 дБ -11.64 дБ 3:11 10-Rise Then FallDR10 -1.02 дБ -12.03 дБ 3:56 11-Steal the Faith in Me--------------------------------------------------------------------------------
Количество треков: 11Реальные значения DR: DR10
Частота: 48000 ГцКаналов: 2Разрядность: 24Битрейт: 1733 кбит/сКодек: FLAC================================================================================


[geo-torrent.biz]_t_5733457.torrent
Torrent: Registered ·  [ 2019-05-18 23:20 ] ·  a22213c21f614d4f4e35a4a5aac38d20f1558f14

12 KB

Status: checked
Completed: 1 times
Size: 576 MB
Rating: 
(Votes: 0)
Say thanks: 0  Thanks
Похожие темы
[Profile]    [PM]
Display posts from previous:    
Reply to topic

The time now is: Today 09:08

All times are GMT + 7 Hours



You cannot post new topics in this forum
You cannot reply to topics in this forum
You cannot edit your posts in this forum
You cannot delete your posts in this forum
You cannot vote in polls in this forum
You cannot attach files in this forum
You can download files in this forum