(Lounge, Chillout, Ethnic) VA - Buddha-Bar Collection I-XXI - 2000-2019, FLAC (tracks+.cue), lossless

Reply to topic
DL-List and Torrent activity [Update пиров]
Size:  22.52 GB   |    Registered:  5 months 3 days   |    Completed:  1 time

Seeder not seen: 4 months 17 days

 
   
 
 
 
Author Message

Mr_Fox

Post 15-May-2019 17:12

[Quote]

Buddha-Bar Collection I-XXI
Жанр: Lounge, Chillout, Ethnic
Страна-производитель диска: EU
Год издания диска: 2000-2018
Издатель (лейбл): George V Records / Wagram Music
Аудиокодек: FLAC (*.flac)
Тип рипа: tracks+.cue
Битрейт аудио: lossless
Наличие сканов в содержимом раздачи: да
Источник (релизер): oleandris
Buddha-Bar By Claude Challe 2CD (2003)

CD1 - Buddha's DinnerТреклист

1. Craig Armstrong - Weather Storm (5:29)
2. Sina Vodjani - Straight To The Heart (7:36)
3. Deepak Ram - Kitu (5:16)
4. Tulku - Anni Rose (4:17)
5. Zeava Ben - What Will Be? (4:01)
6. Zohar - The Merciful One (4:48)
7. Pink Martini - La Soledad (5:17)
8. Aria - Un Bel Di (4:46)
9. Zen Men - Une Table ? Trois (5:33)
10. Zen Men - El Fuego (Trote King Mix) (7:54)
11. Anima Sound System - Shalom (5:40)
12. Jai Uttal - Guru Bramha (4:11)
13. Tulku - Meena Devi (Goddess) (5:35)
14. Armen Chakmakian - Gypsy Rain (5:21)

Лог создания рипа

Exact Audio Copy V1.0 beta 1 from 15. November 2010
EAC extraction logfile from 30. September 2012, 15:48
Various / Buddha's Dinner CD1
Used drive : ASUS DRW-24B3ST Adapter: 3 ID: 0
Read mode : SecureUtilize accurate stream : YesDefeat audio cache : YesMake use of C2 pointers : No
Read offset correction : 6Overread into Lead-In and Lead-Out : NoFill up missing offset samples with silence : YesDelete leading and trailing silent blocks : NoNull samples used in CRC calculations : YesUsed interface : Native Win32 interface for Win NT & 2000Gap handling : Appended to previous track
Used output format : User Defined EncoderSelected bitrate : 1024 kBit/sQuality : HighAdd ID3 tag : NoCommand line compressor : C:\Program Files\Exact Audio Copy\Flac\flac.exeAdditional command line options : -8 -V -T "ARTIST=%a" -T "TITLE=%t" -T "ALBUM=%g" -T "DATE=%y" -T "TRACKNUMBER=%n" -T "GENRE=%m" -T "COMMENT=ripped by Oleandris" %s
TOC of the extracted CD
Track | Start | Length | Start sector | End sector --------------------------------------------------------- 1 | 0:00.00 | 5:28.67 | 0 | 24666 2 | 5:28.67 | 7:36.35 | 24667 | 58901 3 | 13:05.27 | 5:16.23 | 58902 | 82624 4 | 18:21.50 | 4:17.17 | 82625 | 101916 5 | 22:38.67 | 4:00.70 | 101917 | 119986 6 | 26:39.62 | 4:47.65 | 119987 | 141576 7 | 31:27.52 | 5:16.68 | 141577 | 165344 8 | 36:44.45 | 4:46.15 | 165345 | 186809 9 | 41:30.60 | 5:32.45 | 186810 | 211754 10 | 47:03.30 | 7:53.55 | 211755 | 247284 11 | 54:57.10 | 5:39.57 | 247285 | 272766 12 | 60:36.67 | 4:11.25 | 272767 | 291616 13 | 64:48.17 | 5:34.65 | 291617 | 316731 14 | 70:23.07 | 5:20.45 | 316732 | 340776
Track 1
Filename F:\ЗАГРУЗКИ\ Buddha-Bar Collection I-XIV\1. Buddha-Bar By Claude Challe 2CD (2003)\CD1 - Buddha's Dinner\01. Craig Armstrong - Weather Storm.wav
Pre-gap length 0:00:02.00
Peak level 100.0 % Extraction speed 5.8 X Track quality 100.0 % Test CRC 444C29FB Copy CRC 444C29FB Accurately ripped (confidence 4) [B10B8416] Copy OK
Track 2
Filename F:\ЗАГРУЗКИ\ Buddha-Bar Collection I-XIV\1. Buddha-Bar By Claude Challe 2CD (2003)\CD1 - Buddha's Dinner\02. Sina Vodjani - Straight To The Heart.wav
Peak level 100.0 % Extraction speed 6.9 X Track quality 100.0 % Test CRC 692B2022 Copy CRC 692B2022 Accurately ripped (confidence 4) [6590216B] Copy OK
Track 3
Filename F:\ЗАГРУЗКИ\ Buddha-Bar Collection I-XIV\1. Buddha-Bar By Claude Challe 2CD (2003)\CD1 - Buddha's Dinner\03. Deepak Ram - Kitu.wav
Peak level 100.0 % Extraction speed 7.3 X Track quality 100.0 % Test CRC 3388F8DB Copy CRC 3388F8DB Accurately ripped (confidence 4) [6F5FDF24] Copy OK
Track 4
Filename F:\ЗАГРУЗКИ\ Buddha-Bar Collection I-XIV\1. Buddha-Bar By Claude Challe 2CD (2003)\CD1 - Buddha's Dinner\04. Tulku - Anni Rose.wav
Peak level 100.0 % Extraction speed 7.6 X Track quality 100.0 % Test CRC EEAAF654 Copy CRC EEAAF654 Accurately ripped (confidence 4) [0AF50895] Copy OK
Track 5
Filename F:\ЗАГРУЗКИ\ Buddha-Bar Collection I-XIV\1. Buddha-Bar By Claude Challe 2CD (2003)\CD1 - Buddha's Dinner\05. Zeava Ben - What Will Be.wav
Peak level 100.0 % Extraction speed 8.0 X Track quality 100.0 % Test CRC 6EBEAD81 Copy CRC 6EBEAD81 Accurately ripped (confidence 4) [B95AC676] Copy OK
Track 6
Filename F:\ЗАГРУЗКИ\ Buddha-Bar Collection I-XIV\1. Buddha-Bar By Claude Challe 2CD (2003)\CD1 - Buddha's Dinner\06. Zohar - The Merciful One.wav
Peak level 100.0 % Extraction speed 7.1 X Track quality 99.9 % Test CRC 53B80695 Copy CRC 53B80695 Accurately ripped (confidence 4) [DED91F6C] Copy OK
Track 7
Filename F:\ЗАГРУЗКИ\ Buddha-Bar Collection I-XIV\1. Buddha-Bar By Claude Challe 2CD (2003)\CD1 - Buddha's Dinner\07. Pink Martini - La Soledad.wav
Peak level 99.2 % Extraction speed 9.1 X Track quality 100.0 % Test CRC A8DB2AA7 Copy CRC A8DB2AA7 Accurately ripped (confidence 4) [F52F52D0] Copy OK
Track 8
Filename F:\ЗАГРУЗКИ\ Buddha-Bar Collection I-XIV\1. Buddha-Bar By Claude Challe 2CD (2003)\CD1 - Buddha's Dinner\08. Aria - Un Bel Di.wav
Peak level 99.2 % Extraction speed 9.4 X Track quality 100.0 % Test CRC 066796C7 Copy CRC 066796C7 Accurately ripped (confidence 4) [C188D035] Copy OK
Track 9
Filename F:\ЗАГРУЗКИ\ Buddha-Bar Collection I-XIV\1. Buddha-Bar By Claude Challe 2CD (2003)\CD1 - Buddha's Dinner\09. Zen Men - Une Table А Trois.wav
Peak level 100.0 % Extraction speed 10.0 X Track quality 100.0 % Test CRC CACC9E53 Copy CRC CACC9E53 Accurately ripped (confidence 4) [38C312B5] Copy OK
Track 10
Filename F:\ЗАГРУЗКИ\ Buddha-Bar Collection I-XIV\1. Buddha-Bar By Claude Challe 2CD (2003)\CD1 - Buddha's Dinner\10. Zen Men - El Fuego (Trote King Mix).wav
Peak level 99.2 % Extraction speed 10.9 X Track quality 100.0 % Test CRC E0FCD11F Copy CRC E0FCD11F Accurately ripped (confidence 4) [3D42A81A] Copy OK
Track 11
Filename F:\ЗАГРУЗКИ\ Buddha-Bar Collection I-XIV\1. Buddha-Bar By Claude Challe 2CD (2003)\CD1 - Buddha's Dinner\11. Anima Sound System - Shalom.wav
Peak level 100.0 % Extraction speed 11.1 X Track quality 100.0 % Test CRC A9BAFFDB Copy CRC A9BAFFDB Accurately ripped (confidence 4) [E02B14D7] Copy OK
Track 12
Filename F:\ЗАГРУЗКИ\ Buddha-Bar Collection I-XIV\1. Buddha-Bar By Claude Challe 2CD (2003)\CD1 - Buddha's Dinner\12. Jai Uttal - Guru Bramha.wav
Peak level 99.4 % Extraction speed 10.9 X Track quality 100.0 % Test CRC FA4DCFF7 Copy CRC FA4DCFF7 Accurately ripped (confidence 4) [D9B5FBBA] Copy OK
Track 13
Filename F:\ЗАГРУЗКИ\ Buddha-Bar Collection I-XIV\1. Buddha-Bar By Claude Challe 2CD (2003)\CD1 - Buddha's Dinner\13. Tulku - Meena Devi (Goddess).wav
Peak level 99.2 % Extraction speed 11.7 X Track quality 100.0 % Test CRC C70416D3 Copy CRC C70416D3 Accurately ripped (confidence 4) [259982E2] Copy OK
Track 14
Filename F:\ЗАГРУЗКИ\ Buddha-Bar Collection I-XIV\1. Buddha-Bar By Claude Challe 2CD (2003)\CD1 - Buddha's Dinner\14. Armen Chakmakian - Gypsy Rain.wav
Peak level 99.2 % Extraction speed 12.0 X Track quality 100.0 % Test CRC 78B230CE Copy CRC 78B230CE Accurately ripped (confidence 4) [A3CF302D] Copy OK
All tracks accurately ripped
No errors occurred
End of status report
==== Log checksum 98976B49AF038B2A338BF019FA059494D8D1710DBD196B6DA8A3C8C0D38C385C ====

Содержание индексной карты (.CUE)

REM GENRE LoungeREM DATE 2003REM DISCID C711BF0EREM COMMENT "ExactAudioCopy v1.0b1"PERFORMER "Various"TITLE "Buddha's Dinner CD1"FILE "01. Craig Armstrong - Weather Storm.wav" WAVE TRACK 01 AUDIO TITLE "Weather Storm" PERFORMER "Craig Armstrong" INDEX 01 00:00:00FILE "02. Sina Vodjani - Straight To The Heart.wav" WAVE TRACK 02 AUDIO TITLE "Straight To The Heart" PERFORMER "Sina Vodjani" INDEX 01 00:00:00FILE "03. Deepak Ram - Kitu.wav" WAVE TRACK 03 AUDIO TITLE "Kitu" PERFORMER "Deepak Ram" INDEX 01 00:00:00FILE "04. Tulku - Anni Rose.wav" WAVE TRACK 04 AUDIO TITLE "Anni Rose" PERFORMER "Tulku" INDEX 01 00:00:00FILE "05. Zeava Ben - What Will Be.wav" WAVE TRACK 05 AUDIO TITLE "What Will Be?" PERFORMER "Zeava Ben" INDEX 01 00:00:00FILE "06. Zohar - The Merciful One.wav" WAVE TRACK 06 AUDIO TITLE "The Merciful One" PERFORMER "Zohar" INDEX 01 00:00:00FILE "07. Pink Martini - La Soledad.wav" WAVE TRACK 07 AUDIO TITLE "La Soledad" PERFORMER "Pink Martini" INDEX 01 00:00:00FILE "08. Aria - Un Bel Di.wav" WAVE TRACK 08 AUDIO TITLE "Un Bel Di" PERFORMER "Aria" INDEX 01 00:00:00FILE "09. Zen Men - Une Table А Trois.wav" WAVE TRACK 09 AUDIO TITLE "Une Table А Trois" PERFORMER "Zen Men" INDEX 01 00:00:00FILE "10. Zen Men - El Fuego (Trote King Mix).wav" WAVE TRACK 10 AUDIO TITLE "El Fuego (Trote King Mix)" PERFORMER "Zen Men" INDEX 01 00:00:00FILE "11. Anima Sound System - Shalom.wav" WAVE TRACK 11 AUDIO TITLE "Shalom" PERFORMER "Anima Sound System" INDEX 01 00:00:00FILE "12. Jai Uttal - Guru Bramha.wav" WAVE TRACK 12 AUDIO TITLE "Guru Bramha" PERFORMER "Jai Uttal" INDEX 01 00:00:00FILE "13. Tulku - Meena Devi (Goddess).wav" WAVE TRACK 13 AUDIO TITLE "Meena Devi (Goddess)" PERFORMER "Tulku" INDEX 01 00:00:00FILE "14. Armen Chakmakian - Gypsy Rain.wav" WAVE TRACK 14 AUDIO TITLE "Gypsy Rain" PERFORMER "Armen Chakmakian" INDEX 01 00:00:00
Время звучания: 1:15:43

CD2 - Buddha's PartyТреклист

1. Anima Sound System - 68 [Original Mix] (6:37)
2. Le Duc - Touareg (5:41)
3. Mkl Vs Soy Sos - Skin [Original Abstract Mix] (5:30)
4. Faithless - Drifting Away [Paradiso Mix] (5:07)
5. Intro - Psique (6:08)
6. Kevin Yost - Two Wrongs Making It Right (5:57)
7. Huff & Herb - Feeling Good (6:57)
8. So Emotional - All By Myself (4:33)
9. Byron Stingily - Flying High [Master At Work Brazilian Vocal Mix] (5:06)
10. Nusrath Fateh Ali Khan - Piya Re Piya Re [Remix] (4:25)
11. Etti Ankry - Eshebo (4:06)
12. Malik Adouane - Theme From Shaft (3:10)
13. Metin Arolat - Elveda (4:45)
14. Willy De Ville - Demasiado Corazon (3:49)

Лог создания рипа

Exact Audio Copy V1.0 beta 1 from 15. November 2010
EAC extraction logfile from 30. September 2012, 15:57
Various / Buddha's Party CD2
Used drive : PLEXTOR DVDR PX-L890SA Adapter: 5 ID: 0
Read mode : SecureUtilize accurate stream : YesDefeat audio cache : YesMake use of C2 pointers : No
Read offset correction : 6Overread into Lead-In and Lead-Out : NoFill up missing offset samples with silence : YesDelete leading and trailing silent blocks : NoNull samples used in CRC calculations : YesUsed interface : Native Win32 interface for Win NT & 2000Gap handling : Appended to previous track
Used output format : User Defined EncoderSelected bitrate : 1024 kBit/sQuality : HighAdd ID3 tag : NoCommand line compressor : C:\Program Files\Exact Audio Copy\Flac\flac.exeAdditional command line options : -8 -V -T "ARTIST=%a" -T "TITLE=%t" -T "ALBUM=%g" -T "DATE=%y" -T "TRACKNUMBER=%n" -T "GENRE=%m" -T "COMMENT=ripped by Oleandris" %s
TOC of the extracted CD
Track | Start | Length | Start sector | End sector --------------------------------------------------------- 1 | 0:00.00 | 6:37.07 | 0 | 29781 2 | 6:37.07 | 5:41.37 | 29782 | 55393 3 | 12:18.44 | 5:30.05 | 55394 | 80148 4 | 17:48.49 | 5:07.35 | 80149 | 103208 5 | 22:56.09 | 6:07.68 | 103209 | 130801 6 | 29:04.02 | 5:56.62 | 130802 | 157563 7 | 35:00.64 | 6:57.15 | 157564 | 188853 8 | 41:58.04 | 4:32.65 | 188854 | 209318 9 | 46:30.69 | 5:06.15 | 209319 | 232283 10 | 51:37.09 | 4:25.28 | 232284 | 252186 11 | 56:02.37 | 4:06.37 | 252187 | 270673 12 | 60:08.74 | 3:09.68 | 270674 | 284916 13 | 63:18.67 | 4:44.47 | 284917 | 306263 14 | 68:03.39 | 3:48.54 | 306264 | 323417
Track 1
Filename F:\ЗАГРУЗКИ\ Buddha-Bar Collection I-XIV\1. Buddha-Bar By Claude Challe 2CD (2003)\CD2 - Buddha's Party\01. Anima Sound System - 68 [Original Mix].wav
Pre-gap length 0:00:02.00
Peak level 100.0 % Extraction speed 3.9 X Track quality 100.0 % Test CRC B68BC120 Copy CRC B68BC120 Accurately ripped (confidence 4) [E335EF07] Copy OK
Track 2
Filename F:\ЗАГРУЗКИ\ Buddha-Bar Collection I-XIV\1. Buddha-Bar By Claude Challe 2CD (2003)\CD2 - Buddha's Party\02. Le Duc - Touareg.wav
Peak level 99.2 % Extraction speed 4.4 X Track quality 100.0 % Test CRC 50499461 Copy CRC 50499461 Accurately ripped (confidence 4) [FF9E7350] Copy OK
Track 3
Filename F:\ЗАГРУЗКИ\ Buddha-Bar Collection I-XIV\1. Buddha-Bar By Claude Challe 2CD (2003)\CD2 - Buddha's Party\03. Mkl Vs Soy Sos - Skin [Original Abstract Mix].wav
Peak level 100.0 % Extraction speed 4.1 X Track quality 99.9 % Test CRC CC2F1D33 Copy CRC CC2F1D33 Accurately ripped (confidence 4) [036A968C] Copy OK
Track 4
Filename F:\ЗАГРУЗКИ\ Buddha-Bar Collection I-XIV\1. Buddha-Bar By Claude Challe 2CD (2003)\CD2 - Buddha's Party\04. Faithless - Drifting Away [Paradiso Mix].wav
Peak level 99.2 % Extraction speed 4.3 X Track quality 99.9 % Test CRC B6D0C046 Copy CRC B6D0C046 Accurately ripped (confidence 4) [E5B20C48] Copy OK
Track 5
Filename F:\ЗАГРУЗКИ\ Buddha-Bar Collection I-XIV\1. Buddha-Bar By Claude Challe 2CD (2003)\CD2 - Buddha's Party\05. Intro - Psique.wav
Peak level 100.0 % Extraction speed 4.8 X Track quality 99.9 % Test CRC 048E0A3D Copy CRC 048E0A3D Accurately ripped (confidence 4) [757E35C8] Copy OK
Track 6
Filename F:\ЗАГРУЗКИ\ Buddha-Bar Collection I-XIV\1. Buddha-Bar By Claude Challe 2CD (2003)\CD2 - Buddha's Party\06. Kevin Yost - Two Wrongs Making It Right.wav
Peak level 100.0 % Extraction speed 6.0 X Track quality 100.0 % Test CRC E395A18F Copy CRC E395A18F Accurately ripped (confidence 4) [39D1D576] Copy OK
Track 7
Filename F:\ЗАГРУЗКИ\ Buddha-Bar Collection I-XIV\1. Buddha-Bar By Claude Challe 2CD (2003)\CD2 - Buddha's Party\07. Huff & Herb - Feeling Good.wav
Peak level 100.0 % Extraction speed 6.5 X Track quality 100.0 % Test CRC BD1AF0F0 Copy CRC BD1AF0F0 Accurately ripped (confidence 4) [150B56DB] Copy OK
Track 8
Filename F:\ЗАГРУЗКИ\ Buddha-Bar Collection I-XIV\1. Buddha-Bar By Claude Challe 2CD (2003)\CD2 - Buddha's Party\08. So Emotional - All By Myself.wav
Peak level 99.2 % Extraction speed 6.5 X Track quality 100.0 % Test CRC A83D17CB Copy CRC A83D17CB Accurately ripped (confidence 4) [C2DD11C3] Copy OK
Track 9
Filename F:\ЗАГРУЗКИ\ Buddha-Bar Collection I-XIV\1. Buddha-Bar By Claude Challe 2CD (2003)\CD2 - Buddha's Party\09. Byron Stingily - Flying High [Master At Work Brazilian Vocal Mix].wav
Peak level 88.4 % Extraction speed 6.8 X Track quality 100.0 % Test CRC D4EDE461 Copy CRC D4EDE461 Accurately ripped (confidence 4) [B212B095] Copy OK
Track 10
Filename F:\ЗАГРУЗКИ\ Buddha-Bar Collection I-XIV\1. Buddha-Bar By Claude Challe 2CD (2003)\CD2 - Buddha's Party\10. Nusrath Fateh Ali Khan - Piya Re Piya Re [Remix].wav
Peak level 99.2 % Extraction speed 6.9 X Track quality 100.0 % Test CRC 607CB4A0 Copy CRC 607CB4A0 Accurately ripped (confidence 4) [E89A5E53] Copy OK
Track 11
Filename F:\ЗАГРУЗКИ\ Buddha-Bar Collection I-XIV\1. Buddha-Bar By Claude Challe 2CD (2003)\CD2 - Buddha's Party\11. Etti Ankry - Eshebo.wav
Peak level 100.0 % Extraction speed 7.1 X Track quality 100.0 % Test CRC A3EB0032 Copy CRC A3EB0032 Accurately ripped (confidence 4) [873B335A] Copy OK
Track 12
Filename F:\ЗАГРУЗКИ\ Buddha-Bar Collection I-XIV\1. Buddha-Bar By Claude Challe 2CD (2003)\CD2 - Buddha's Party\12. Malik Adouane - Theme From Shaft.wav
Peak level 100.0 % Extraction speed 5.3 X Track quality 99.9 % Test CRC 5AD569A5 Copy CRC 5AD569A5 Accurately ripped (confidence 4) [EF1E0376] Copy OK
Track 13
Filename F:\ЗАГРУЗКИ\ Buddha-Bar Collection I-XIV\1. Buddha-Bar By Claude Challe 2CD (2003)\CD2 - Buddha's Party\13. Metin Arolat - Elveda.wav
Peak level 100.0 % Extraction speed 7.5 X Track quality 100.0 % Test CRC 183AD253 Copy CRC 183AD253 Accurately ripped (confidence 4) [18F2A1C6] Copy OK
Track 14
Filename F:\ЗАГРУЗКИ\ Buddha-Bar Collection I-XIV\1. Buddha-Bar By Claude Challe 2CD (2003)\CD2 - Buddha's Party\14. Willy De Ville - Demasiado Corazon.wav
Peak level 100.0 % Extraction speed 7.5 X Track quality 100.0 % Test CRC 49492EB0 Copy CRC 49492EB0 Accurately ripped (confidence 4) [4F7DE267] Copy OK
All tracks accurately ripped
No errors occurred
End of status report
==== Log checksum 082D2170EEBAA8C2D0AD01EE1A7712218318F6DFE0F9D9B588A578A4019C92D0 ====

Содержание индексной карты (.CUE)

REM GENRE LoungeREM DATE 2003REM DISCID BC10D80EREM COMMENT "ExactAudioCopy v1.0b1"PERFORMER "Buddha-Bar By Claude Challe"TITLE "Buddha's Party CD2"FILE "01. Buddha-Bar By Claude Challe - Anima Sound System , 68 [Original Mix].wav" WAVE TRACK 01 AUDIO TITLE "Anima Sound System / 68 [Original Mix]" PERFORMER "Buddha-Bar By Claude Challe" INDEX 01 00:00:00FILE "02. Buddha-Bar By Claude Challe - Le Duc , Touareg.wav" WAVE TRACK 02 AUDIO TITLE "Le Duc / Touareg" PERFORMER "Buddha-Bar By Claude Challe" INDEX 01 00:00:00FILE "03. Buddha-Bar By Claude Challe - Mkl Vs Soy Sos , Skin [Original Abstract Mix].wav" WAVE TRACK 03 AUDIO TITLE "Mkl Vs Soy Sos / Skin [Original Abstract Mix]" PERFORMER "Buddha-Bar By Claude Challe" INDEX 01 00:00:00FILE "04. Buddha-Bar By Claude Challe - Faithless , Drifting Away [Paradiso Mix].wav" WAVE TRACK 04 AUDIO TITLE "Faithless / Drifting Away [Paradiso Mix]" PERFORMER "Buddha-Bar By Claude Challe" INDEX 01 00:00:00FILE "05. Buddha-Bar By Claude Challe - Intro , Psique.wav" WAVE TRACK 05 AUDIO TITLE "Intro / Psique" PERFORMER "Buddha-Bar By Claude Challe" INDEX 01 00:00:00FILE "06. Buddha-Bar By Claude Challe - Kevin Yost , Two Wrongs Making It Right.wav" WAVE TRACK 06 AUDIO TITLE "Kevin Yost / Two Wrongs Making It Right" PERFORMER "Buddha-Bar By Claude Challe" INDEX 01 00:00:00FILE "07. Buddha-Bar By Claude Challe - Huff & Herb , Feeling Good.wav" WAVE TRACK 07 AUDIO TITLE "Huff & Herb / Feeling Good" PERFORMER "Buddha-Bar By Claude Challe" INDEX 01 00:00:00FILE "08. Buddha-Bar By Claude Challe - So Emotional , All By Myself.wav" WAVE TRACK 08 AUDIO TITLE "So Emotional / All By Myself" PERFORMER "Buddha-Bar By Claude Challe" INDEX 01 00:00:00FILE "09. Buddha-Bar By Claude Challe - Byron Stingily , Flying High [Master At Work Brazilian Vocal Mix].wav" WAVE TRACK 09 AUDIO TITLE "Byron Stingily / Flying High [Master At Work Brazilian Vocal Mix]" PERFORMER "Buddha-Bar By Claude Challe" INDEX 01 00:00:00FILE "10. Buddha-Bar By Claude Challe - Nusrath Fateh Ali Khan , Piya Re Piya Re [Remix].wav" WAVE TRACK 10 AUDIO TITLE "Nusrath Fateh Ali Khan / Piya Re Piya Re [Remix]" PERFORMER "Buddha-Bar By Claude Challe" INDEX 01 00:00:00FILE "11. Buddha-Bar By Claude Challe - Etti Ankry , Eshebo.wav" WAVE TRACK 11 AUDIO TITLE "Etti Ankry / Eshebo" PERFORMER "Buddha-Bar By Claude Challe" INDEX 01 00:00:00FILE "12. Buddha-Bar By Claude Challe - Malik Adouane , Theme From Shaft.wav" WAVE TRACK 12 AUDIO TITLE "Malik Adouane / Theme From Shaft" PERFORMER "Buddha-Bar By Claude Challe" INDEX 01 00:00:00FILE "13. Buddha-Bar By Claude Challe - Metin Arolat , Elveda.wav" WAVE TRACK 13 AUDIO TITLE "Metin Arolat / Elveda" PERFORMER "Buddha-Bar By Claude Challe" INDEX 01 00:00:00FILE "14. Buddha-Bar By Claude Challe - Willy De Ville , Demasiado Corazon.wav" WAVE TRACK 14 AUDIO TITLE "Willy De Ville / Demasiado Corazon" PERFORMER "Buddha-Bar By Claude Challe" INDEX 01 00:00:00
Время звучания: 1:15:52
Buddha-Bar II By Claude Challe 2CD (2000)

CD1 - Buddha's Dinner 2Треклист

1. 01. Trumpet Thing - Need You (Right Now) Ambient Mix (4:29)
2. Omar Faruk Tekbilek - I Love You (7:39)
3. Consuelo Luz - Los Bilbilicos (The Nightingales) (5:40)
4. Karunesh - Alibaba (7:40)
5. Deepak Chopra Feat. Demi Moore - Desire (5:22)
6. Govinda - In Through Time (3:43)
7. Oliver Shanti & Friends - Onon Mweng (Rainbird) (5:03)
8. Atman - Spirit (4:36)
9. Deadbeats - Funky For You (5:30)
10. De-Phazz - Mambo Craze (4:20)
11. Nino - Amor Amor (3:47)
12. Sa Trincha - Smell Of Paradise (3:20)
13. Intro - Farruca (5:19)
14. Funky Lowlives - Nota Bossa (6:01)

Лог создания рипа

Exact Audio Copy V1.0 beta 1 from 15. November 2010
EAC extraction logfile from 30. September 2012, 17:11
Various / Buddha's Dinner 2 CD1
Used drive : ASUS DRW-24B3ST Adapter: 3 ID: 0
Read mode : SecureUtilize accurate stream : YesDefeat audio cache : YesMake use of C2 pointers : No
Read offset correction : 6Overread into Lead-In and Lead-Out : NoFill up missing offset samples with silence : YesDelete leading and trailing silent blocks : NoNull samples used in CRC calculations : YesUsed interface : Native Win32 interface for Win NT & 2000Gap handling : Appended to previous track
Used output format : User Defined EncoderSelected bitrate : 1024 kBit/sQuality : HighAdd ID3 tag : NoCommand line compressor : C:\Program Files\Exact Audio Copy\Flac\flac.exeAdditional command line options : -8 -V -T "ARTIST=%a" -T "TITLE=%t" -T "ALBUM=%g" -T "DATE=%y" -T "TRACKNUMBER=%n" -T "GENRE=%m" -T "COMMENT=ripped by Oleandris" %s
TOC of the extracted CD
Track | Start | Length | Start sector | End sector --------------------------------------------------------- 1 | 0:00.00 | 4:29.27 | 0 | 20201 2 | 4:29.27 | 7:39.25 | 20202 | 54651 3 | 12:08.52 | 5:39.45 | 54652 | 80121 4 | 17:48.22 | 7:40.20 | 80122 | 114641 5 | 25:28.42 | 5:21.68 | 114642 | 138784 6 | 30:50.35 | 3:43.04 | 138785 | 155513 7 | 34:33.39 | 5:02.62 | 155514 | 178225 8 | 39:36.26 | 4:36.08 | 178226 | 198933 9 | 44:12.34 | 5:30.07 | 198934 | 223690 10 | 49:42.41 | 4:20.05 | 223691 | 243195 11 | 54:02.46 | 3:47.01 | 243196 | 260221 12 | 57:49.47 | 3:20.15 | 260222 | 275236 13 | 61:09.62 | 5:18.59 | 275237 | 299145 14 | 66:28.46 | 6:01.20 | 299146 | 326240
Track 1
Filename F:\ЗАГРУЗКИ\ Buddha-Bar Collection I-XIV\2. Buddha-Bar II By Claude Challe 2CD (2000)\CD1 Buddha's Dinner 2\01. Trumpet Thing - Need You (Right Now) Ambient Mix.wav
Pre-gap length 0:00:02.00
Peak level 100.0 % Extraction speed 3.6 X Track quality 100.0 % Test CRC 917FBC8D Copy CRC 917FBC8D Accurately ripped (confidence 5) [98199950] Copy OK
Track 2
Filename F:\ЗАГРУЗКИ\ Buddha-Bar Collection I-XIV\2. Buddha-Bar II By Claude Challe 2CD (2000)\CD1 Buddha's Dinner 2\02. Omar Faruk Tekbilek - I Love You.wav
Peak level 100.0 % Extraction speed 4.4 X Track quality 100.0 % Test CRC 23BA8386 Copy CRC 23BA8386 Accurately ripped (confidence 5) [57015DFA] Copy OK
Track 3
Filename F:\ЗАГРУЗКИ\ Buddha-Bar Collection I-XIV\2. Buddha-Bar II By Claude Challe 2CD (2000)\CD1 Buddha's Dinner 2\03. Consuelo Luz - Los Bilbilicos (The Nightingales).wav
Peak level 100.0 % Extraction speed 4.8 X Track quality 100.0 % Test CRC CF47610B Copy CRC CF47610B Accurately ripped (confidence 5) [2BA3652D] Copy OK
Track 4
Filename F:\ЗАГРУЗКИ\ Buddha-Bar Collection I-XIV\2. Buddha-Bar II By Claude Challe 2CD (2000)\CD1 Buddha's Dinner 2\04. Karunesh - Alibaba.wav
Peak level 100.0 % Extraction speed 5.5 X Track quality 100.0 % Test CRC 5218FF62 Copy CRC 5218FF62 Accurately ripped (confidence 5) [B512F7C2] Copy OK
Track 5
Filename F:\ЗАГРУЗКИ\ Buddha-Bar Collection I-XIV\2. Buddha-Bar II By Claude Challe 2CD (2000)\CD1 Buddha's Dinner 2\05. Deepak Chopra Feat. Demi Moore - Desire.wav
Peak level 100.0 % Extraction speed 5.7 X Track quality 100.0 % Test CRC 0A86E28F Copy CRC 0A86E28F Accurately ripped (confidence 5) [9CB12A80] Copy OK
Track 6
Filename F:\ЗАГРУЗКИ\ Buddha-Bar Collection I-XIV\2. Buddha-Bar II By Claude Challe 2CD (2000)\CD1 Buddha's Dinner 2\06. Govinda - In Through Time.wav
Peak level 100.0 % Extraction speed 5.7 X Track quality 100.0 % Test CRC C13108F8 Copy CRC C13108F8 Accurately ripped (confidence 5) [46F99686] Copy OK
Track 7
Filename F:\ЗАГРУЗКИ\ Buddha-Bar Collection I-XIV\2. Buddha-Bar II By Claude Challe 2CD (2000)\CD1 Buddha's Dinner 2\07. Oliver Shanti & Friends - Onon Mweng (Rainbird).wav
Peak level 100.0 % Extraction speed 5.0 X Track quality 99.9 % Test CRC C93ACC5F Copy CRC C93ACC5F Accurately ripped (confidence 5) [4CA130F2] Copy OK
Track 8
Filename F:\ЗАГРУЗКИ\ Buddha-Bar Collection I-XIV\2. Buddha-Bar II By Claude Challe 2CD (2000)\CD1 Buddha's Dinner 2\08. Atman - Spirit.wav
Peak level 100.0 % Extraction speed 6.3 X Track quality 100.0 % Test CRC E666AABF Copy CRC E666AABF Accurately ripped (confidence 5) [BF716EDB] Copy OK
Track 9
Filename F:\ЗАГРУЗКИ\ Buddha-Bar Collection I-XIV\2. Buddha-Bar II By Claude Challe 2CD (2000)\CD1 Buddha's Dinner 2\09. Deadbeats - Funky For You.wav
Peak level 100.0 % Extraction speed 6.8 X Track quality 100.0 % Test CRC 97F5762E Copy CRC 97F5762E Accurately ripped (confidence 5) [35BB1078] Copy OK
Track 10
Filename F:\ЗАГРУЗКИ\ Buddha-Bar Collection I-XIV\2. Buddha-Bar II By Claude Challe 2CD (2000)\CD1 Buddha's Dinner 2\10. De-Phazz - Mambo Craze.wav
Peak level 100.0 % Extraction speed 6.8 X Track quality 100.0 % Test CRC 5416CE0B Copy CRC 5416CE0B Accurately ripped (confidence 5) [8CF25E4A] Copy OK
Track 11
Filename F:\ЗАГРУЗКИ\ Buddha-Bar Collection I-XIV\2. Buddha-Bar II By Claude Challe 2CD (2000)\CD1 Buddha's Dinner 2\11. Nino - Amor Amor.wav
Peak level 100.0 % Extraction speed 6.8 X Track quality 100.0 % Test CRC F295506B Copy CRC F295506B Accurately ripped (confidence 5) [58FD6893] Copy OK
Track 12
Filename F:\ЗАГРУЗКИ\ Buddha-Bar Collection I-XIV\2. Buddha-Bar II By Claude Challe 2CD (2000)\CD1 Buddha's Dinner 2\12. Sa Trincha - Smell Of Paradise.wav
Peak level 100.0 % Extraction speed 6.9 X Track quality 100.0 % Test CRC 207C28DE Copy CRC 207C28DE Accurately ripped (confidence 5) [825DDA83] Copy OK
Track 13
Filename F:\ЗАГРУЗКИ\ Buddha-Bar Collection I-XIV\2. Buddha-Bar II By Claude Challe 2CD (2000)\CD1 Buddha's Dinner 2\13. Intro - Farruca.wav
Peak level 100.0 % Extraction speed 6.2 X Track quality 99.9 % Test CRC A64E9939 Copy CRC A64E9939 Accurately ripped (confidence 5) [89D662FA] Copy OK
Track 14
Filename F:\ЗАГРУЗКИ\ Buddha-Bar Collection I-XIV\2. Buddha-Bar II By Claude Challe 2CD (2000)\CD1 Buddha's Dinner 2\14. Funky Lowlives - Nota Bossa.wav
Peak level 100.0 % Extraction speed 7.9 X Track quality 100.0 % Test CRC 8691A957 Copy CRC 8691A957 Accurately ripped (confidence 4) [30A4FD62] Copy OK
All tracks accurately ripped
No errors occurred
End of status report
==== Log checksum 3E902DEFF3053AF8D9E8C6115777F347E9F7122DD325B362DC4543E1D09A7CD1 ====

Содержание индексной карты (.CUE)

REM GENRE LoungeREM DATE 2000REM DISCID C310FD0EREM COMMENT "ExactAudioCopy v1.0b1"PERFORMER "Various"TITLE "Buddha's Dinner 2 CD1"FILE "01. Trumpet Thing - Need You (Right Now) Ambient Mix.wav" WAVE TRACK 01 AUDIO TITLE "Need You (Right Now) Ambient Mix" PERFORMER "Trumpet Thing" INDEX 01 00:00:00FILE "02. Omar Faruk Tekbilek - I Love You.wav" WAVE TRACK 02 AUDIO TITLE "I Love You" PERFORMER "Omar Faruk Tekbilek" ISRC USWC49930902 INDEX 01 00:00:00FILE "03. Consuelo Luz - Los Bilbilicos (The Nightingales).wav" WAVE TRACK 03 AUDIO TITLE "Los Bilbilicos (The Nightingales)" PERFORMER "Consuelo Luz" INDEX 01 00:00:00FILE "04. Karunesh - Alibaba.wav" WAVE TRACK 04 AUDIO TITLE "Alibaba" PERFORMER "Karunesh" INDEX 01 00:00:00FILE "05. Deepak Chopra Feat. Demi Moore - Desire.wav" WAVE TRACK 05 AUDIO TITLE "Desire" PERFORMER "Deepak Chopra Feat. Demi Moore" INDEX 01 00:00:00FILE "06. Govinda - In Through Time.wav" WAVE TRACK 06 AUDIO TITLE "In Through Time" PERFORMER "Govinda" INDEX 01 00:00:00FILE "07. Oliver Shanti & Friends - Onon Mweng (Rainbird).wav" WAVE TRACK 07 AUDIO TITLE "Onon Mweng (Rainbird)" PERFORMER "Oliver Shanti & Friends" ISRC DED759807702 INDEX 01 00:00:00FILE "08. Atman - Spirit.wav" WAVE TRACK 08 AUDIO TITLE "Spirit" PERFORMER "Atman" INDEX 01 00:00:00FILE "09. Deadbeats - Funky For You.wav" WAVE TRACK 09 AUDIO TITLE "Funky For You" PERFORMER "Deadbeats" INDEX 01 00:00:00FILE "10. De-Phazz - Mambo Craze.wav" WAVE TRACK 10 AUDIO TITLE "Mambo Craze" PERFORMER "De-Phazz" INDEX 01 00:00:00FILE "11. Nino - Amor Amor.wav" WAVE TRACK 11 AUDIO TITLE "Amor Amor" PERFORMER "Nino" ISRC FRZ059900800 INDEX 01 00:00:00FILE "12. Sa Trincha - Smell Of Paradise.wav" WAVE TRACK 12 AUDIO TITLE "Smell Of Paradise" PERFORMER "Sa Trincha" ISRC FRZ059702500 INDEX 01 00:00:00FILE "13. Intro - Farruca.wav" WAVE TRACK 13 AUDIO TITLE "Farruca" PERFORMER "Intro" INDEX 01 00:00:00FILE "14. Funky Lowlives - Nota Bossa.wav" WAVE TRACK 14 AUDIO TITLE "Nota Bossa" PERFORMER "Funky Lowlives" INDEX 01 00:00:00
Время звучания: 1:12:29

CD2 - Buddha's Party 2Треклист

1. Sun Trust - How Insensitive (Original Mix) (7:26)
2. Rollercone - Daydreaming (4:45)
3. Wally Brill - A Loop In Time (Banco De Gaia Remix) (6:02)
4. La Roca - Drama Of Japan (6:11)
5. Great Barrier - Cairo (Duke Monster Remix) (7:19)
6. Angel Tears - Inshalla (Ya Salam) (4:33)
7. Dzihan And Kamien - After (6:37)
8. Suba - Felicidade (4:11)
9. Sidestepper - Logozo (6:09)
10. Kerrie Chandler And Joe Clau.. - Escravos De Jo (7:04)
11. Soul Ascendants - The String Thing (5:55)
12. Attaboy - New World (7:56)

Лог создания рипа

Exact Audio Copy V1.0 beta 1 from 15. November 2010
EAC extraction logfile from 30. September 2012, 17:12
Various / Buddha's Party 2 CD2
Used drive : PLEXTOR DVDR PX-L890SA Adapter: 5 ID: 0
Read mode : SecureUtilize accurate stream : YesDefeat audio cache : YesMake use of C2 pointers : No
Read offset correction : 6Overread into Lead-In and Lead-Out : NoFill up missing offset samples with silence : YesDelete leading and trailing silent blocks : NoNull samples used in CRC calculations : YesUsed interface : Native Win32 interface for Win NT & 2000Gap handling : Appended to previous track
Used output format : User Defined EncoderSelected bitrate : 1024 kBit/sQuality : HighAdd ID3 tag : NoCommand line compressor : C:\Program Files\Exact Audio Copy\Flac\flac.exeAdditional command line options : -8 -V -T "ARTIST=%a" -T "TITLE=%t" -T "ALBUM=%g" -T "DATE=%y" -T "TRACKNUMBER=%n" -T "GENRE=%m" -T "COMMENT=ripped by Oleandris" %s
TOC of the extracted CD
Track | Start | Length | Start sector | End sector --------------------------------------------------------- 1 | 0:00.00 | 7:26.25 | 0 | 33474 2 | 7:26.25 | 4:45.32 | 33475 | 54881 3 | 12:11.57 | 6:01.51 | 54882 | 82007 4 | 18:13.33 | 6:10.59 | 82008 | 109816 5 | 24:24.17 | 7:18.73 | 109817 | 142739 6 | 31:43.15 | 4:32.58 | 142740 | 163197 7 | 36:15.73 | 6:36.44 | 163198 | 192941 8 | 42:52.42 | 4:10.46 | 192942 | 211737 9 | 47:03.13 | 6:08.40 | 211738 | 239377 10 | 53:11.53 | 7:04.33 | 239378 | 271210 11 | 60:16.11 | 5:55.11 | 271211 | 297846 12 | 66:11.22 | 7:56.31 | 297847 | 333577
Track 1
Filename F:\ЗАГРУЗКИ\ Buddha-Bar Collection I-XIV\2. Buddha-Bar II By Claude Challe 2CD (2000)\CD2 Buddha's Party 2\01. Sun Trust - How Insensitive (Original Mix).wav
Pre-gap length 0:00:02.00
Peak level 100.0 % Extraction speed 4.1 X Track quality 100.0 % Test CRC 17379D39 Copy CRC 17379D39 Accurately ripped (confidence 5) [AE892014] Copy OK
Track 2
Filename F:\ЗАГРУЗКИ\ Buddha-Bar Collection I-XIV\2. Buddha-Bar II By Claude Challe 2CD (2000)\CD2 Buddha's Party 2\02. Rollercone - Daydreaming.wav
Peak level 100.0 % Extraction speed 4.5 X Track quality 100.0 % Test CRC 357E0087 Copy CRC 357E0087 Accurately ripped (confidence 5) [B462F837] Copy OK
Track 3
Filename F:\ЗАГРУЗКИ\ Buddha-Bar Collection I-XIV\2. Buddha-Bar II By Claude Challe 2CD (2000)\CD2 Buddha's Party 2\03. Wally Brill - A Loop In Time (Banco De Gaia Remix).wav
Peak level 100.0 % Extraction speed 5.0 X Track quality 100.0 % Test CRC C8DC240C Copy CRC C8DC240C Accurately ripped (confidence 5) [1FB042EF] Copy OK
Track 4
Filename F:\ЗАГРУЗКИ\ Buddha-Bar Collection I-XIV\2. Buddha-Bar II By Claude Challe 2CD (2000)\CD2 Buddha's Party 2\04. La Roca - Drama Of Japan.wav
Peak level 100.0 % Extraction speed 5.4 X Track quality 100.0 % Test CRC 8D85AC3A Copy CRC 8D85AC3A Accurately ripped (confidence 5) [63B332BC] Copy OK
Track 5
Filename F:\ЗАГРУЗКИ\ Buddha-Bar Collection I-XIV\2. Buddha-Bar II By Claude Challe 2CD (2000)\CD2 Buddha's Party 2\05. Great Barrier - Cairo (Duke Monster Remix).wav
Peak level 100.0 % Extraction speed 5.2 X Track quality 99.9 % Test CRC 086D3685 Copy CRC 086D3685 Accurately ripped (confidence 5) [A8B8347D] Copy OK
Track 6
Filename F:\ЗАГРУЗКИ\ Buddha-Bar Collection I-XIV\2. Buddha-Bar II By Claude Challe 2CD (2000)\CD2 Buddha's Party 2\06. Angel Tears - Inshalla (Ya Salam).wav
Peak level 92.8 % Extraction speed 6.0 X Track quality 100.0 % Test CRC CA2B05D1 Copy CRC CA2B05D1 Accurately ripped (confidence 5) [7AD169FF] Copy OK
Track 7
Filename F:\ЗАГРУЗКИ\ Buddha-Bar Collection I-XIV\2. Buddha-Bar II By Claude Challe 2CD (2000)\CD2 Buddha's Party 2\07. Dzihan And Kamien - After.wav
Peak level 100.0 % Extraction speed 6.6 X Track quality 100.0 % Test CRC 0582A80B Copy CRC 0582A80B Accurately ripped (confidence 5) [C4206A3E] Copy OK
Track 8
Filename F:\ЗАГРУЗКИ\ Buddha-Bar Collection I-XIV\2. Buddha-Bar II By Claude Challe 2CD (2000)\CD2 Buddha's Party 2\08. Suba - Felicidade.wav
Peak level 99.9 % Extraction speed 6.6 X Track quality 100.0 % Test CRC 0F69F3B6 Copy CRC 0F69F3B6 Accurately ripped (confidence 5) [34FA4FDD] Copy OK
Track 9
Filename F:\ЗАГРУЗКИ\ Buddha-Bar Collection I-XIV\2. Buddha-Bar II By Claude Challe 2CD (2000)\CD2 Buddha's Party 2\09. Sidestepper - Logozo.wav
Peak level 100.0 % Extraction speed 7.2 X Track quality 100.0 % Test CRC 60176EB4 Copy CRC 60176EB4 Accurately ripped (confidence 5) [E1CE8181] Copy OK
Track 10
Filename F:\ЗАГРУЗКИ\ Buddha-Bar Collection I-XIV\2. Buddha-Bar II By Claude Challe 2CD (2000)\CD2 Buddha's Party 2\10. Kerrie Chandler And Joe Clausell - Escravos De Jo.wav
Peak level 95.7 % Extraction speed 7.6 X Track quality 100.0 % Test CRC B268A386 Copy CRC B268A386 Accurately ripped (confidence 5) [66E1C398] Copy OK
Track 11
Filename F:\ЗАГРУЗКИ\ Buddha-Bar Collection I-XIV\2. Buddha-Bar II By Claude Challe 2CD (2000)\CD2 Buddha's Party 2\11. Soul Ascendants - The String Thing.wav
Peak level 100.0 % Extraction speed 7.7 X Track quality 100.0 % Test CRC 61709EBB Copy CRC 61709EBB Accurately ripped (confidence 5) [BCB6AC6F] Copy OK
Track 12
Filename F:\ЗАГРУЗКИ\ Buddha-Bar Collection I-XIV\2. Buddha-Bar II By Claude Challe 2CD (2000)\CD2 Buddha's Party 2\12. Attaboy - New World.wav
Peak level 100.0 % Extraction speed 8.2 X Track quality 100.0 % Test CRC 25844236 Copy CRC 25844236 Accurately ripped (confidence 5) [45F4E4D0] Copy OK
All tracks accurately ripped
No errors occurred
End of status report
==== Log checksum 66E8776F243C2E61A0EDC571AA927002C2C7C6B610AEA2698F7A3A795820DA9C ====

Содержание индексной карты (.CUE)

REM GENRE LoungeREM DATE 2000REM DISCID BA115F0CREM COMMENT "ExactAudioCopy v1.0b1"PERFORMER "Various"TITLE "Buddha's Party 2 CD2"FILE "01. Sun Trust - How Insensitive (Original Mix).wav" WAVE TRACK 01 AUDIO TITLE "How Insensitive (Original Mix)" PERFORMER "Sun Trust" ISRC GBDDX9900019 INDEX 01 00:00:00FILE "02. Rollercone - Daydreaming.wav" WAVE TRACK 02 AUDIO TITLE "Daydreaming" PERFORMER "Rollercone" INDEX 01 00:00:00FILE "03. Wally Brill - A Loop In Time (Banco De Gaia Remix).wav" WAVE TRACK 03 AUDIO TITLE "A Loop In Time (Banco De Gaia Remix)" PERFORMER "Wally Brill" INDEX 01 00:00:00FILE "04. La Roca - Drama Of Japan.wav" WAVE TRACK 04 AUDIO TITLE "Drama Of Japan" PERFORMER "La Roca" INDEX 01 00:00:00FILE "05. Great Barrier - Cairo (Duke Monster Remix).wav" WAVE TRACK 05 AUDIO TITLE "Cairo (Duke Monster Remix)" PERFORMER "Great Barrier" INDEX 01 00:00:00FILE "06. Angel Tears - Inshalla (Ya Salam).wav" WAVE TRACK 06 AUDIO TITLE "Inshalla (Ya Salam)" PERFORMER "Angel Tears" INDEX 01 00:00:00FILE "07. Dzihan And Kamien - After.wav" WAVE TRACK 07 AUDIO TITLE "After" PERFORMER "Dzihan And Kamien" ISRC DEM929900004 INDEX 01 00:00:00FILE "08. Suba - Felicidade.wav" WAVE TRACK 08 AUDIO TITLE "Felicidade" PERFORMER "Suba" ISRC BE6F59900900 INDEX 01 00:00:00FILE "09. Sidestepper - Logozo.wav" WAVE TRACK 09 AUDIO TITLE "Logozo" PERFORMER "Sidestepper" INDEX 01 00:00:00FILE "10. Kerrie Chandler And Joe Clausell - Escravos De Jo.wav" WAVE TRACK 10 AUDIO TITLE "Escravos De Jo" PERFORMER "Kerrie Chandler And Joe Clausell" INDEX 01 00:00:00FILE "11. Soul Ascendants - The String Thing.wav" WAVE TRACK 11 AUDIO TITLE "The String Thing" PERFORMER "Soul Ascendants" ISRC GBBRU9900040 INDEX 01 00:00:00FILE "12. Attaboy - New World.wav" WAVE TRACK 12 AUDIO TITLE "New World" PERFORMER "Attaboy" INDEX 01 00:00:00
Время звучания: 1:14:07
Buddha-Bar III By Ravin 2CD (2005)

СD1 - DreamТреклист

1. Nicos - Secret Love (3:41)
2. Asiabeat - Golden Lotus (4:08)
3. Yorgos Kazantis - Sorocos (3:52)
4. Karunesh - Solitude (6:20)
5. Platon Andritsakis - Via Payuta Iii (3:48)
6. Tulku - Spiral Dacne (5:39)
7. Cellar 55 - Close To Home (4:07)
8. 08. Gustavo Montesano & Royal Philarmocica Orquestra - Tango Serenata (3:42)
9. Adrian Enescu - Invisible Movie Part I (3:50)
10. Deepak Ram - A Night In Lenasia (3:59)
11. Nitin Sawhney - Mausam (3:50)
12. Frederik Rousseau - Danya (4:35)
13. Eden - Mavis (4:27)
14. Oliver Shanti & Friends - Sacral Nirvana (5:08)
15. Jesse Cook - On Walks The Night (6:34)

Лог создания рипа

Exact Audio Copy V1.0 beta 1 from 15. November 2010
EAC extraction logfile from 30. September 2012, 18:06
Various / Dream CD1
Used drive : ASUS DRW-24B3ST Adapter: 3 ID: 0
Read mode : SecureUtilize accurate stream : YesDefeat audio cache : YesMake use of C2 pointers : No
Read offset correction : 6Overread into Lead-In and Lead-Out : NoFill up missing offset samples with silence : YesDelete leading and trailing silent blocks : NoNull samples used in CRC calculations : YesUsed interface : Native Win32 interface for Win NT & 2000Gap handling : Appended to previous track
Used output format : User Defined EncoderSelected bitrate : 1024 kBit/sQuality : HighAdd ID3 tag : NoCommand line compressor : C:\Program Files\Exact Audio Copy\Flac\flac.exeAdditional command line options : -8 -V -T "ARTIST=%a" -T "TITLE=%t" -T "ALBUM=%g" -T "DATE=%y" -T "TRACKNUMBER=%n" -T "GENRE=%m" -T "COMMENT=ripped by Oleandris" %s
TOC of the extracted CD
Track | Start | Length | Start sector | End sector --------------------------------------------------------- 1 | 0:00.00 | 3:41.31 | 0 | 16605 2 | 3:41.31 | 4:07.45 | 16606 | 35175 3 | 7:49.01 | 3:51.68 | 35176 | 52568 4 | 11:40.69 | 6:19.39 | 52569 | 81032 5 | 18:00.33 | 3:47.60 | 81033 | 98117 6 | 21:48.18 | 5:39.33 | 98118 | 123575 7 | 27:27.51 | 4:06.71 | 123576 | 142096 8 | 31:34.47 | 3:41.72 | 142097 | 158743 9 | 35:16.44 | 3:50.09 | 158744 | 176002 10 | 39:06.53 | 3:59.26 | 176003 | 193953 11 | 43:06.04 | 3:49.41 | 193954 | 211169 12 | 46:55.45 | 4:35.29 | 211170 | 231823 13 | 51:30.74 | 4:26.39 | 231824 | 251812 14 | 55:57.38 | 5:07.59 | 251813 | 274896 15 | 61:05.22 | 6:34.33 | 274897 | 304479
Track 1
Filename F:\ЗАГРУЗКИ\ Buddha-Bar Collection I-XIV\3. Buddha-Bar III By Ravin 2CD (2005)\CD1 Dream\01. Nicos - Secret Love.wav
Pre-gap length 0:00:02.00
Peak level 100.0 % Extraction speed 3.3 X Track quality 100.0 % Test CRC E9DE1210 Copy CRC E9DE1210 Cannot be verified as accurate (confidence 17) [8D548C45], AccurateRip returned [968D8CA2] Copy OK
Track 2
Filename F:\ЗАГРУЗКИ\ Buddha-Bar Collection I-XIV\3. Buddha-Bar III By Ravin 2CD (2005)\CD1 Dream\02. Asiabeat - Golden Lotus.wav
Peak level 100.0 % Extraction speed 3.8 X Track quality 100.0 % Test CRC F30B2159 Copy CRC F30B2159 Cannot be verified as accurate (confidence 17) [862703BD], AccurateRip returned [04E2A5FF] Copy OK
Track 3
Filename F:\ЗАГРУЗКИ\ Buddha-Bar Collection I-XIV\3. Buddha-Bar III By Ravin 2CD (2005)\CD1 Dream\03. Yorgos Kazantis - Sorocos.wav
Peak level 100.0 % Extraction speed 4.1 X Track quality 100.0 % Test CRC D3FB306A Copy CRC D3FB306A Cannot be verified as accurate (confidence 17) [30D31FCC], AccurateRip returned [1CAC66FD] Copy OK
Track 4
Filename F:\ЗАГРУЗКИ\ Buddha-Bar Collection I-XIV\3. Buddha-Bar III By Ravin 2CD (2005)\CD1 Dream\04. Karunesh - Solitude.wav
Peak level 100.0 % Extraction speed 4.1 X Track quality 99.9 % Test CRC 01036E97 Copy CRC 01036E97 Cannot be verified as accurate (confidence 17) [13C39909], AccurateRip returned [C78DA181] Copy OK
Track 5
Filename F:\ЗАГРУЗКИ\ Buddha-Bar Collection I-XIV\3. Buddha-Bar III By Ravin 2CD (2005)\CD1 Dream\05. Platon Andritsakis - Via Payuta Iii.wav
Peak level 100.0 % Extraction speed 3.8 X Track quality 99.9 % Test CRC 1989F323 Copy CRC 1989F323 Cannot be verified as accurate (confidence 17) [717BAF9F], AccurateRip returned [F3BD6EFB] Copy OK
Track 6
Filename F:\ЗАГРУЗКИ\ Buddha-Bar Collection I-XIV\3. Buddha-Bar III By Ravin 2CD (2005)\CD1 Dream\06. Tulku - Spiral Dacne.wav
Peak level 100.0 % Extraction speed 5.4 X Track quality 100.0 % Test CRC 96038F8E Copy CRC 96038F8E Cannot be verified as accurate (confidence 17) [A917B577], AccurateRip returned [3C2FB7BE] Copy OK
Track 7
Filename F:\ЗАГРУЗКИ\ Buddha-Bar Collection I-XIV\3. Buddha-Bar III By Ravin 2CD (2005)\CD1 Dream\07. Cellar 55 - Close To Home.wav
Peak level 100.0 % Extraction speed 5.4 X Track quality 100.0 % Test CRC 6D3910D5 Copy CRC 6D3910D5 Cannot be verified as accurate (confidence 17) [522AE9FB], AccurateRip returned [3994F464] Copy OK
Track 8
Filename F:\ЗАГРУЗКИ\ Buddha-Bar Collection I-XIV\3. Buddha-Bar III By Ravin 2CD (2005)\CD1 Dream\08. Gustavo Montesano & Royal Philarmocica Orquestra - Tango Serenata.wav
Peak level 100.0 % Extraction speed 5.6 X Track quality 100.0 % Test CRC 242DA029 Copy CRC 242DA029 Cannot be verified as accurate (confidence 17) [914E628F], AccurateRip returned [9BD609AB] Copy OK
Track 9
Filename F:\ЗАГРУЗКИ\ Buddha-Bar Collection I-XIV\3. Buddha-Bar III By Ravin 2CD (2005)\CD1 Dream\09. Adrian Enescu - Invisible Movie Part I.wav
Peak level 100.0 % Extraction speed 4.5 X Track quality 99.9 % Test CRC 13622654 Copy CRC 13622654 Cannot be verified as accurate (confidence 17) [D48A992F], AccurateRip returned [F73CC938] Copy OK
Track 10
Filename F:\ЗАГРУЗКИ\ Buddha-Bar Collection I-XIV\3. Buddha-Bar III By Ravin 2CD (2005)\CD1 Dream\10. Deepak Ram - A Night In Lenasia.wav
Peak level 100.0 % Extraction speed 6.0 X Track quality 100.0 % Test CRC 9A2D29A4 Copy CRC 9A2D29A4 Cannot be verified as accurate (confidence 16) [630C71C3], AccurateRip returned [37889180] Copy OK
Track 11
Filename F:\ЗАГРУЗКИ\ Buddha-Bar Collection I-XIV\3. Buddha-Bar III By Ravin 2CD (2005)\CD1 Dream\11. Nitin Sawhney - Mausam.wav
Peak level 100.0 % Extraction speed 6.2 X Track quality 100.0 % Test CRC 62F39364 Copy CRC 62F39364 Cannot be verified as accurate (confidence 17) [9B7C81A0], AccurateRip returned [09F0F8D1] Copy OK
Track 12
Filename F:\ЗАГРУЗКИ\ Buddha-Bar Collection I-XIV\3. Buddha-Bar III By Ravin 2CD (2005)\CD1 Dream\12. Frederik Rousseau - Danya.wav
Peak level 100.0 % Extraction speed 6.5 X Track quality 100.0 % Test CRC 3928239F Copy CRC 3928239F Cannot be verified as accurate (confidence 17) [D6EFAB3A], AccurateRip returned [B46A8529] Copy OK
Track 13
Filename F:\ЗАГРУЗКИ\ Buddha-Bar Collection I-XIV\3. Buddha-Bar III By Ravin 2CD (2005)\CD1 Dream\13. Eden - Mavis.wav
Peak level 99.9 % Extraction speed 6.7 X Track quality 100.0 % Test CRC E2367ED3 Copy CRC E2367ED3 Cannot be verified as accurate (confidence 17) [98F0815B], AccurateRip returned [12DED4AE] Copy OK
Track 14
Filename F:\ЗАГРУЗКИ\ Buddha-Bar Collection I-XIV\3. Buddha-Bar III By Ravin 2CD (2005)\CD1 Dream\14. Oliver Shanti & Friends - Sacral Nirvana.wav
Peak level 100.0 % Extraction speed 6.0 X Track quality 99.9 % Test CRC 0E90F63C Copy CRC 0E90F63C Cannot be verified as accurate (confidence 17) [5F47D4F6], AccurateRip returned [8BF3DE36] Copy OK
Track 15
Filename F:\ЗАГРУЗКИ\ Buddha-Bar Collection I-XIV\3. Buddha-Bar III By Ravin 2CD (2005)\CD1 Dream\15. Jesse Cook - On Walks The Night.wav
Peak level 100.0 % Extraction speed 7.5 X Track quality 100.0 % Test CRC 5F1FB2E2 Copy CRC 5F1FB2E2 Cannot be verified as accurate (confidence 17) [70E90C68], AccurateRip returned [3B7C0913] Copy OK
No tracks could be verified as accurateYou may have a different pressing from the one(s) in the database
No errors occurred
End of status report
==== Log checksum 6EB6D23A2F217377F855C0E662C035DE3FDC92EF0E903882074F584C42F12AB4 ====

Содержание индексной карты (.CUE)

REM GENRE LoungeREM DATE 2005REM DISCID D80FDB0FREM COMMENT "ExactAudioCopy v1.0b1"PERFORMER "Various"TITLE "Dream CD1"FILE "01. Nicos - Secret Love.wav" WAVE TRACK 01 AUDIO TITLE "Secret Love" PERFORMER "Nicos" INDEX 01 00:00:00FILE "02. Asiabeat - Golden Lotus.wav" WAVE TRACK 02 AUDIO TITLE "Golden Lotus" PERFORMER "Asiabeat" INDEX 01 00:00:00FILE "03. Yorgos Kazantis - Sorocos.wav" WAVE TRACK 03 AUDIO TITLE "Sorocos" PERFORMER "Yorgos Kazantis" INDEX 01 00:00:00FILE "04. Karunesh - Solitude.wav" WAVE TRACK 04 AUDIO TITLE "Solitude" PERFORMER "Karunesh" INDEX 01 00:00:00FILE "05. Platon Andritsakis - Via Payuta Iii.wav" WAVE TRACK 05 AUDIO TITLE "Via Payuta Iii" PERFORMER "Platon Andritsakis" INDEX 01 00:00:00FILE "06. Tulku - Spiral Dacne.wav" WAVE TRACK 06 AUDIO TITLE "Spiral Dacne" PERFORMER "Tulku" INDEX 01 00:00:00FILE "07. Cellar 55 - Close To Home.wav" WAVE TRACK 07 AUDIO TITLE "Close To Home" PERFORMER "Cellar 55" INDEX 01 00:00:00FILE "08. Gustavo Montesano & Royal Philarmocica Orquestra - Tango Serenata.wav" WAVE TRACK 08 AUDIO TITLE "Tango Serenata" PERFORMER "Gustavo Montesano & Royal Philarmocica Orquestra" INDEX 01 00:00:00FILE "09. Adrian Enescu - Invisible Movie Part I.wav" WAVE TRACK 09 AUDIO TITLE "Invisible Movie Part I" PERFORMER "Adrian Enescu" INDEX 01 00:00:00FILE "10. Deepak Ram - A Night In Lenasia.wav" WAVE TRACK 10 AUDIO TITLE "A Night In Lenasia" PERFORMER "Deepak Ram" INDEX 01 00:00:00FILE "11. Nitin Sawhney - Mausam.wav" WAVE TRACK 11 AUDIO TITLE "Mausam" PERFORMER "Nitin Sawhney" INDEX 01 00:00:00FILE "12. Frederik Rousseau - Danya.wav" WAVE TRACK 12 AUDIO TITLE "Danya" PERFORMER "Frederik Rousseau" INDEX 01 00:00:00FILE "13. Eden - Mavis.wav" WAVE TRACK 13 AUDIO TITLE "Mavis" PERFORMER "Eden" INDEX 01 00:00:00FILE "14. Oliver Shanti & Friends - Sacral Nirvana.wav" WAVE TRACK 14 AUDIO TITLE "Sacral Nirvana" PERFORMER "Oliver Shanti & Friends" INDEX 01 00:00:00FILE "15. Jesse Cook - On Walks The Night.wav" WAVE TRACK 15 AUDIO TITLE "On Walks The Night" PERFORMER "Jesse Cook" INDEX 01 00:00:00
Время звучания: 1:07:39

СD2 - JoyТреклист

1. Gotan Project - Triptico (8:17)
2. Zeb - Sufism (4:59)
3. Thomas Schumacher - Yara (3:42)
4. Freeman - My Dear Masters (7:53)
5. Ekova - Starlight In Daden (Aurora Remix) (4:58)
6. Midival Punditz Featuring Kailash Kher - Ali (6:09)
7. Ravi Prasad - Indian Gypsy (4:42)
8. Hasan Cihat Orter - Flirting Shadows (4:13)
9. Anna Vissi - Den Me Agapas (4:34)
10. Nacho Sotomayor - Don't Do Anything (4:41)
11. Badmarsh & Shri - Sitar Ritual (6:20)
12. Kodo - Strobe's Nanafushi (Satori Mix) (4:56)
13. Livin' In Da Ghetto Featuring Moktar - Arabian Song (Da Ghetto Fuckiro Club) (12:36)

Лог создания рипа

Exact Audio Copy V1.0 beta 1 from 15. November 2010
EAC extraction logfile from 30. September 2012, 18:06
Various / Joy CD2
Used drive : PLEXTOR DVDR PX-L890SA Adapter: 5 ID: 0
Read mode : SecureUtilize accurate stream : YesDefeat audio cache : YesMake use of C2 pointers : No
Read offset correction : 6Overread into Lead-In and Lead-Out : NoFill up missing offset samples with silence : YesDelete leading and trailing silent blocks : NoNull samples used in CRC calculations : YesUsed interface : Native Win32 interface for Win NT & 2000Gap handling : Appended to previous track
Used output format : User Defined EncoderSelected bitrate : 1024 kBit/sQuality : HighAdd ID3 tag : NoCommand line compressor : C:\Program Files\Exact Audio Copy\Flac\flac.exeAdditional command line options : -8 -V -T "ARTIST=%a" -T "TITLE=%t" -T "ALBUM=%g" -T "DATE=%y" -T "TRACKNUMBER=%n" -T "GENRE=%m" -T "COMMENT=ripped by Oleandris" %s
TOC of the extracted CD
Track | Start | Length | Start sector | End sector --------------------------------------------------------- 1 | 0:00.00 | 8:17.35 | 0 | 37309 2 | 8:17.35 | 4:59.02 | 37310 | 59736 3 | 13:16.37 | 3:41.46 | 59737 | 76357 4 | 16:58.08 | 7:53.25 | 76358 | 111857 5 | 24:51.33 | 4:58.01 | 111858 | 134208 6 | 29:49.34 | 6:09.13 | 134209 | 161896 7 | 35:58.47 | 4:42.19 | 161897 | 183065 8 | 40:40.66 | 4:13.11 | 183066 | 202051 9 | 44:54.02 | 4:34.00 | 202052 | 222601 10 | 49:28.02 | 4:40.61 | 222602 | 243662 11 | 54:08.63 | 6:20.29 | 243663 | 272191 12 | 60:29.17 | 4:56.30 | 272192 | 294421 13 | 65:25.47 | 12:36.28 | 294422 | 351149
Track 1
Filename F:\ЗАГРУЗКИ\ Buddha-Bar Collection I-XIV\3. Buddha-Bar III By Ravin 2CD (2005)\CD2 Joy\01. Gotan Project - Triptico.wav
Pre-gap length 0:00:02.00
Peak level 100.0 % Extraction speed 4.2 X Track quality 100.0 % Test CRC C8B6730A Copy CRC C8B6730A Cannot be verified as accurate (confidence 13) [428E3F1A], AccurateRip returned [7BCF397D] Copy OK
Track 2
Filename F:\ЗАГРУЗКИ\ Buddha-Bar Collection I-XIV\3. Buddha-Bar III By Ravin 2CD (2005)\CD2 Joy\02. Zeb - Sufism.wav
Peak level 100.0 % Extraction speed 4.6 X Track quality 100.0 % Test CRC 1A749C2C Copy CRC 1A749C2C Cannot be verified as accurate (confidence 13) [5219522F], AccurateRip returned [BD79B1F5] Copy OK
Track 3
Filename F:\ЗАГРУЗКИ\ Buddha-Bar Collection I-XIV\3. Buddha-Bar III By Ravin 2CD (2005)\CD2 Joy\03. Thomas Schumacher - Yara.wav
Peak level 100.0 % Extraction speed 4.8 X Track quality 100.0 % Test CRC 39D39485 Copy CRC 39D39485 Cannot be verified as accurate (confidence 13) [2DAC76FD], AccurateRip returned [E8A82DA7] Copy OK
Track 4
Filename F:\ЗАГРУЗКИ\ Buddha-Bar Collection I-XIV\3. Buddha-Bar III By Ravin 2CD (2005)\CD2 Joy\04. Freeman - My Dear Masters.wav
Peak level 100.0 % Extraction speed 5.6 X Track quality 100.0 % Test CRC FC83AC67 Copy CRC FC83AC67 Cannot be verified as accurate (confidence 13) [7FCAC11D], AccurateRip returned [7B6A1422] Copy OK
Track 5
Filename F:\ЗАГРУЗКИ\ Buddha-Bar Collection I-XIV\3. Buddha-Bar III By Ravin 2CD (2005)\CD2 Joy\05. Ekova - Starlight In Daden (Aurora Remix).wav
Peak level 100.0 % Extraction speed 5.8 X Track quality 100.0 % Test CRC 4581E1DA Copy CRC 4581E1DA Cannot be verified as accurate (confidence 13) [D7A9132C], AccurateRip returned [6B4AA3CE] Copy OK
Track 6
Filename F:\ЗАГРУЗКИ\ Buddha-Bar Collection I-XIV\3. Buddha-Bar III By Ravin 2CD (2005)\CD2 Joy\06. Midival Punditz Featuring Kailash Kher - Ali.wav
Peak level 100.0 % Extraction speed 6.2 X Track quality 100.0 % Test CRC F24484B4 Copy CRC F24484B4 Cannot be verified as accurate (confidence 13) [222D599D], AccurateRip returned [620228B5] Copy OK
Track 7
Filename F:\ЗАГРУЗКИ\ Buddha-Bar Collection I-XIV\3. Buddha-Bar III By Ravin 2CD (2005)\CD2 Joy\07. Ravi Prasad - Indian Gypsy.wav
Peak level 100.0 % Extraction speed 5.1 X Track quality 99.9 % Test CRC 058B191A Copy CRC 058B191A Cannot be verified as accurate (confidence 13) [B5AABA7B], AccurateRip returned [F7EAB034] Copy OK
Track 8
Filename F:\ЗАГРУЗКИ\ Buddha-Bar Collection I-XIV\3. Buddha-Bar III By Ravin 2CD (2005)\CD2 Joy\08. Hasan Cihat Orter - Flirting Shadows.wav
Peak level 100.0 % Extraction speed 6.5 X Track quality 100.0 % Test CRC 48E65651 Copy CRC 48E65651 Cannot be verified as accurate (confidence 13) [A61C4104], AccurateRip returned [DF243E54] Copy OK
Track 9
Filename F:\ЗАГРУЗКИ\ Buddha-Bar Collection I-XIV\3. Buddha-Bar III By Ravin 2CD (2005)\CD2 Joy\09. Anna Vissi - Den Me Agapas.wav
Peak level 100.0 % Extraction speed 6.8 X Track quality 100.0 % Test CRC AFF7361A Copy CRC AFF7361A Cannot be verified as accurate (confidence 13) [DE10F305], AccurateRip returned [4FC537BB] Copy OK
Track 10
Filename F:\ЗАГРУЗКИ\ Buddha-Bar Collection I-XIV\3. Buddha-Bar III By Ravin 2CD (2005)\CD2 Joy\10. Nacho Sotomayor - Don't Do Anything.wav
Peak level 100.0 % Extraction speed 7.0 X Track quality 100.0 % Test CRC 8078A9B9 Copy CRC 8078A9B9 Cannot be verified as accurate (confidence 13) [EAB9A750], AccurateRip returned [1DC51A4E] Copy OK
Track 11
Filename F:\ЗАГРУЗКИ\ Buddha-Bar Collection I-XIV\3. Buddha-Bar III By Ravin 2CD (2005)\CD2 Joy\11. Badmarsh & Shri - Sitar Ritual.wav
Peak level 100.0 % Extraction speed 7.6 X Track quality 100.0 % Test CRC BE852EE4 Copy CRC BE852EE4 Cannot be verified as accurate (confidence 12) [0C76E3D7], AccurateRip returned [5B8B89CD] Copy OK
Track 12
Filename F:\ЗАГРУЗКИ\ Buddha-Bar Collection I-XIV\3. Buddha-Bar III By Ravin 2CD (2005)\CD2 Joy\12. Kodo - Strobe's Nanafushi (Satori Mix).wav
Peak level 100.0 % Extraction speed 7.5 X Track quality 100.0 % Test CRC 9471E903 Copy CRC 9471E903 Cannot be verified as accurate (confidence 14) [F8185744], AccurateRip returned [116BA834] Copy OK
Track 13
Filename F:\ЗАГРУЗКИ\ Buddha-Bar Collection I-XIV\3. Buddha-Bar III By Ravin 2CD (2005)\CD2 Joy\13. Livin' In Da Ghetto Featuring Moktar - Arabian Song (Da Ghetto Fuckiro Club).wav
Peak level 100.0 % Extraction speed 8.6 X Track quality 100.0 % Test CRC 98537D06 Copy CRC 98537D06 Cannot be verified as accurate (confidence 12) [96AC223E], AccurateRip returned [92E539D1] Copy OK
No tracks could be verified as accurateYou may have a different pressing from the one(s) in the database
No errors occurred
End of status report
==== Log checksum A49C4DBBBFEC6E08A86980653D935ECEC8516378A90F96FBB69FC4D875243A0F ====

Содержание индексной карты (.CUE)

REM GENRE LoungeREM DATE 2005REM DISCID C0124A0DREM COMMENT "ExactAudioCopy v1.0b1"PERFORMER "Various"TITLE "Joy CD2"FILE "01. Gotan Project - Triptico.wav" WAVE TRACK 01 AUDIO TITLE "Triptico" PERFORMER "Gotan Project" INDEX 01 00:00:00FILE "02. Zeb - Sufism.wav" WAVE TRACK 02 AUDIO TITLE "Sufism" PERFORMER "Zeb" INDEX 01 00:00:00FILE "03. Thomas Schumacher - Yara.wav" WAVE TRACK 03 AUDIO TITLE "Yara" PERFORMER "Thomas Schumacher" INDEX 01 00:00:00FILE "04. Freeman - My Dear Masters.wav" WAVE TRACK 04 AUDIO TITLE "My Dear Masters" PERFORMER "Freeman" INDEX 01 00:00:00FILE "05. Ekova - Starlight In Daden (Aurora Remix).wav" WAVE TRACK 05 AUDIO TITLE "Starlight In Daden (Aurora Remix)" PERFORMER "Ekova" INDEX 01 00:00:00FILE "06. Midival Punditz Featuring Kailash Kher - Ali.wav" WAVE TRACK 06 AUDIO TITLE "Ali" PERFORMER "Midival Punditz Featuring Kailash Kher" INDEX 01 00:00:00FILE "07. Ravi Prasad - Indian Gypsy.wav" WAVE TRACK 07 AUDIO TITLE "Indian Gypsy" PERFORMER "Ravi Prasad" INDEX 01 00:00:00FILE "08. Hasan Cihat Orter - Flirting Shadows.wav" WAVE TRACK 08 AUDIO TITLE "Flirting Shadows" PERFORMER "Hasan Cihat Orter" INDEX 01 00:00:00FILE "09. Anna Vissi - Den Me Agapas.wav" WAVE TRACK 09 AUDIO TITLE "Den Me Agapas" PERFORMER "Anna Vissi" INDEX 01 00:00:00FILE "10. Nacho Sotomayor - Don't Do Anything.wav" WAVE TRACK 10 AUDIO TITLE "Don't Do Anything" PERFORMER "Nacho Sotomayor" INDEX 01 00:00:00FILE "11. Badmarsh & Shri - Sitar Ritual.wav" WAVE TRACK 11 AUDIO TITLE "Sitar Ritual" PERFORMER "Badmarsh & Shri" INDEX 01 00:00:00FILE "12. Kodo - Strobe's Nanafushi (Satori Mix).wav" WAVE TRACK 12 AUDIO TITLE "Strobe's Nanafushi (Satori Mix)" PERFORMER "Kodo" INDEX 01 00:00:00FILE "13. Livin' In Da Ghetto Featuring Moktar - Arabian Song (Da Ghetto Fuckiro Club).wav" WAVE TRACK 13 AUDIO TITLE "Arabian Song (Da Ghetto Fuckiro Club)" PERFORMER "Livin' In Da Ghetto Featuring Moktar" INDEX 01 00:00:00
Время звучания: 1:18:02
Buddha-Bar IV By David Visan 2CD (2006)

СD1 - DinnerТреклист

1. Frederick Rousseau - La Fille du Pekin (3:09)2. Tibet Project - Tibet (A Passage To...) (5:12)3. Jade Or - Opium (3:27)4. Nitin Sawhney - Moonrise (4:41)5. Jasmine - Sweet Lemon (3:37)6. Agricantus - Amatevi (4:13)7. Federico Aubele - Contigo (3:45)8. Guadalupe Pineda Con Los Tres Ases - Historia De Un Amor (3:20)9. Rudy Khan & Jester P - Ghetto Blaster (4:25)10. Nickodemus - 10. Nickodemus - Desert Dancer (Zeb's Slow Camel Ride Remix) (5:59)11. Flam - Monsoon (5:35)12. Tulku - Rhada Ramana (5:04)13. Natassa Theodoridou - Tora To Thimithikes (3:40)14. Gotan Project - Una Musica Brutal (4:12)

Лог создания рипа

Exact Audio Copy V1.0 beta 1 from 15. November 2010
EAC extraction logfile from 30. September 2012, 18:44
Various / Buddha Bar IV CD1: Dinner
Used drive : ASUS DRW-24B3ST Adapter: 3 ID: 0
Read mode : SecureUtilize accurate stream : YesDefeat audio cache : YesMake use of C2 pointers : No
Read offset correction : 6Overread into Lead-In and Lead-Out : NoFill up missing offset samples with silence : YesDelete leading and trailing silent blocks : NoNull samples used in CRC calculations : YesUsed interface : Native Win32 interface for Win NT & 2000Gap handling : Appended to previous track
Used output format : User Defined EncoderSelected bitrate : 1024 kBit/sQuality : HighAdd ID3 tag : NoCommand line compressor : C:\Program Files\Exact Audio Copy\Flac\flac.exeAdditional command line options : -8 -V -T "ARTIST=%a" -T "TITLE=%t" -T "ALBUM=%g" -T "DATE=%y" -T "TRACKNUMBER=%n" -T "GENRE=%m" -T "COMMENT=ripped by Oleandris" %s
TOC of the extracted CD
Track | Start | Length | Start sector | End sector --------------------------------------------------------- 1 | 0:00.00 | 3:09.03 | 0 | 14177 2 | 3:09.03 | 5:12.00 | 14178 | 37577 3 | 8:21.03 | 3:27.37 | 37578 | 53139 4 | 11:48.40 | 4:41.14 | 53140 | 74228 5 | 16:29.54 | 3:36.53 | 74229 | 90481 6 | 20:06.32 | 4:13.18 | 90482 | 109474 7 | 24:19.50 | 3:44.46 | 109475 | 126320 8 | 28:04.21 | 3:19.43 | 126321 | 141288 9 | 31:23.64 | 4:24.52 | 141289 | 161140 10 | 35:48.41 | 5:59.18 | 161141 | 188083 11 | 41:47.59 | 5:35.27 | 188084 | 213235 12 | 47:23.11 | 5:03.58 | 213236 | 236018 13 | 52:26.69 | 3:39.55 | 236019 | 252498 14 | 56:06.49 | 4:11.64 | 252499 | 271387
Track 1
Filename F:\ЗАГРУЗКИ\ Buddha-Bar Collection I-XIV\4. Buddha-Bar IV By David Visan 2CD (2006)\CD1 Dinner\01. Frederick Rousseau - La Fille du Pekin.wav
Pre-gap length 0:00:02.00
Peak level 98.0 % Extraction speed 3.2 X Track quality 100.0 % Test CRC 1EC8396E Copy CRC 1EC8396E Accurately ripped (confidence 2) [CF648264] Copy OK
Track 2
Filename F:\ЗАГРУЗКИ\ Buddha-Bar Collection I-XIV\4. Buddha-Bar IV By David Visan 2CD (2006)\CD1 Dinner\02. Tibet Project - Tibet (A Passage To...).wav
Peak level 98.1 % Extraction speed 3.9 X Track quality 100.0 % Test CRC 66B17247 Copy CRC 66B17247 Accurately ripped (confidence 2) [B574E954] Copy OK
Track 3
Filename F:\ЗАГРУЗКИ\ Buddha-Bar Collection I-XIV\4. Buddha-Bar IV By David Visan 2CD (2006)\CD1 Dinner\03. Jade Or - Opium.wav
Peak level 98.0 % Extraction speed 4.1 X Track quality 100.0 % Test CRC FEC4527D Copy CRC FEC4527D Accurately ripped (confidence 2) [11338E34] Copy OK
Track 4
Filename F:\ЗАГРУЗКИ\ Buddha-Bar Collection I-XIV\4. Buddha-Bar IV By David Visan 2CD (2006)\CD1 Dinner\04. Nitin Sawhney - Moonrise.wav
Peak level 98.8 % Extraction speed 4.6 X Track quality 100.0 % Test CRC 88AA5233 Copy CRC 88AA5233 Accurately ripped (confidence 2) [E0FF93D4] Copy OK
Track 5
Filename F:\ЗАГРУЗКИ\ Buddha-Bar Collection I-XIV\4. Buddha-Bar IV By David Visan 2CD (2006)\CD1 Dinner\05. Jasmine - Sweet Lemon.wav
Peak level 98.8 % Extraction speed 4.7 X Track quality 100.0 % Test CRC 87D39D8E Copy CRC 87D39D8E Accurately ripped (confidence 2) [B7FDF6B5] Copy OK
Track 6
Filename F:\ЗАГРУЗКИ\ Buddha-Bar Collection I-XIV\4. Buddha-Bar IV By David Visan 2CD (2006)\CD1 Dinner\06. Agricantus - Amatevi.wav
Peak level 98.2 % Extraction speed 5.1 X Track quality 100.0 % Test CRC 4194D557 Copy CRC 4194D557 Accurately ripped (confidence 2) [7F0071A2] Copy OK
Track 7
Filename F:\ЗАГРУЗКИ\ Buddha-Bar Collection I-XIV\4. Buddha-Bar IV By David Visan 2CD (2006)\CD1 Dinner\07. Federico Aubele - Contigo.wav
Peak level 98.8 % Extraction speed 5.2 X Track quality 100.0 % Test CRC 76A94F90 Copy CRC 76A94F90 Accurately ripped (confidence 2) [87BBE74F] Copy OK
Track 8
Filename F:\ЗАГРУЗКИ\ Buddha-Bar Collection I-XIV\4. Buddha-Bar IV By David Visan 2CD (2006)\CD1 Dinner\08. Guadalupe Pineda Con Los Tres Ases - Historia De Un Amor.wav
Peak level 98.8 % Extraction speed 4.1 X Track quality 99.9 % Test CRC EF4B062E Copy CRC EF4B062E Accurately ripped (confidence 2) [33961566] Copy OK
Track 9
Filename F:\ЗАГРУЗКИ\ Buddha-Bar Collection I-XIV\4. Buddha-Bar IV By David Visan 2CD (2006)\CD1 Dinner\09. Rudy Khan & Jester P - Ghetto Blaster.wav
Peak level 98.8 % Extraction speed 5.8 X Track quality 100.0 % Test CRC 7EB3A390 Copy CRC 7EB3A390 Accurately ripped (confidence 2) [8F8E919B] Copy OK
Track 10
Filename F:\ЗАГРУЗКИ\ Buddha-Bar Collection I-XIV\4. Buddha-Bar IV By David Visan 2CD (2006)\CD1 Dinner\10. Nickodemus - Desert Dancer (Zeb's Slow Camel Ride Remix).wav
Peak level 98.6 % Extraction speed 6.3 X Track quality 100.0 % Test CRC F0CE511D Copy CRC F0CE511D Accurately ripped (confidence 2) [7131C247] Copy OK
Track 11
Filename F:\ЗАГРУЗКИ\ Buddha-Bar Collection I-XIV\4. Buddha-Bar IV By David Visan 2CD (2006)\CD1 Dinner\11. Flam - Monsoon.wav
Peak level 98.8 % Extraction speed 5.6 X Track quality 99.9 % Test CRC 0C3A5216 Copy CRC 0C3A5216 Accurately ripped (confidence 2) [94E18F16] Copy OK
Track 12
Filename F:\ЗАГРУЗКИ\ Buddha-Bar Collection I-XIV\4. Buddha-Bar IV By David Visan 2CD (2006)\CD1 Dinner\12. Tulku - Rhada Ramana.wav
Peak level 98.3 % Extraction speed 6.8 X Track quality 100.0 % Test CRC 92857299 Copy CRC 92857299 Accurately ripped (confidence 2) [2D9B1A80] Copy OK
Track 13
Filename F:\ЗАГРУЗКИ\ Buddha-Bar Collection I-XIV\4. Buddha-Bar IV By David Visan 2CD (2006)\CD1 Dinner\13. Natassa Theodoridou - Tora To Thimithikes.wav
Peak level 98.6 % Extraction speed 6.7 X Track quality 100.0 % Test CRC DED3CF58 Copy CRC DED3CF58 Accurately ripped (confidence 2) [E94A32E9] Copy OK
Track 14
Filename F:\ЗАГРУЗКИ\ Buddha-Bar Collection I-XIV\4. Buddha-Bar IV By David Visan 2CD (2006)\CD1 Dinner\14. Gotan Project - Una Musica Brutal.wav
Peak level 98.7 % Extraction speed 7.1 X Track quality 100.0 % Test CRC 22DBD0C9 Copy CRC 22DBD0C9 Accurately ripped (confidence 2) [A38CFD90] Copy OK
All tracks accurately ripped
No errors occurred
End of status report
==== Log checksum 3B2587F04355AB473DCECE7B427DE5A12217468BD48A8B978C03C376316A414B ====

Содержание индексной карты (.CUE)

REM GENRE LoungeREM DATE 2006REM DISCID C10E220EREM COMMENT "ExactAudioCopy v1.0b1"PERFORMER "Various"TITLE "Buddha Bar IV CD1: Dinner"FILE "01. Frederick Rousseau - La Fille du Pekin.wav" WAVE TRACK 01 AUDIO TITLE "La Fille du Pekin" PERFORMER "Frederick Rousseau" INDEX 01 00:00:00FILE "02. Tibet Project - Tibet (A Passage To...).wav" WAVE TRACK 02 AUDIO TITLE "Tibet (A Passage To...)" PERFORMER "Tibet Project" INDEX 01 00:00:00FILE "03. Jade Or - Opium.wav" WAVE TRACK 03 AUDIO TITLE "Opium" PERFORMER "Jade Or" INDEX 01 00:00:00FILE "04. Nitin Sawhney - Moonrise.wav" WAVE TRACK 04 AUDIO TITLE "Moonrise" PERFORMER "Nitin Sawhney" INDEX 01 00:00:00FILE "05. Jasmine - Sweet Lemon.wav" WAVE TRACK 05 AUDIO TITLE "Sweet Lemon" PERFORMER "Jasmine" INDEX 01 00:00:00FILE "06. Agricantus - Amatevi.wav" WAVE TRACK 06 AUDIO TITLE "Amatevi" PERFORMER "Agricantus" INDEX 01 00:00:00FILE "07. Federico Aubele - Contigo.wav" WAVE TRACK 07 AUDIO TITLE "Contigo" PERFORMER "Federico Aubele" INDEX 01 00:00:00FILE "08. Guadalupe Pineda Con Los Tres Ases - Historia De Un Amor.wav" WAVE TRACK 08 AUDIO TITLE "Historia De Un Amor" PERFORMER "Guadalupe Pineda Con Los Tres Ases" INDEX 01 00:00:00FILE "09. Rudy Khan & Jester P - Ghetto Blaster.wav" WAVE TRACK 09 AUDIO TITLE "Ghetto Blaster" PERFORMER "Rudy Khan & Jester P" INDEX 01 00:00:00FILE "10. Nickodemus - Desert Dancer (Zeb's Slow Camel Ride Remix).wav" WAVE TRACK 10 AUDIO TITLE "Desert Dancer (Zeb's Slow Camel Ride Remix)" PERFORMER "Nickodemus" INDEX 01 00:00:00FILE "11. Flam - Monsoon.wav" WAVE TRACK 11 AUDIO TITLE "Monsoon" PERFORMER "Flam" INDEX 01 00:00:00FILE "12. Tulku - Rhada Ramana.wav" WAVE TRACK 12 AUDIO TITLE "Rhada Ramana" PERFORMER "Tulku" INDEX 01 00:00:00FILE "13. Natassa Theodoridou - Tora To Thimithikes.wav" WAVE TRACK 13 AUDIO TITLE "Tora To Thimithikes" PERFORMER "Natassa Theodoridou" INDEX 01 00:00:00FILE "14. Gotan Project - Una Musica Brutal.wav" WAVE TRACK 14 AUDIO TITLE "Una Musica Brutal" PERFORMER "Gotan Project" INDEX 01 00:00:00
Время звучания: 1:00:18

СD2 - DrinkТреклист

1. Outsized - Karma (Extended Mix) (4:26)
2. Time Passing - Party People (4:52)
3. Elissa - Zambi Ana (4:07)
4. Ishtar - Comme Toi (3:50)
5. Chris Spheeris - Dancing With The Muse (5:47)
6. David Visan & Carlos Campos - Irish Coffee (4:09)
7. Llorca - The Novel Sound (5:57)
8. Loving Paris - Loco (3:13)
9. Roland Louis - Roland Louis - Percussion's Rhythm (Dimitri From Paris Re-edit) (3:08)
10. Dan Lacksman's Alliance - Louxor In Vegas (4:04)
11. Angie Samiou - Agoraki Mou (3:52)
12. Shad - Zaman (4:58)
13. Celia Cruz - Yo Vivire (I Will Survive) (4:24)
14. Usual Masters - Nocturne In Paris (4:14)

Лог создания рипа

[/pre]Exact Audio Copy V1.0 beta 1 from 15. November 2010
EAC extraction logfile from 30. September 2012, 18:44
Various / Drink CD2
Used drive : PLEXTOR DVDR PX-L890SA Adapter: 5 ID: 0
Read mode : Secure
Utilize accurate stream : Yes
Defeat audio cache : Yes
Make use of C2 pointers : No
Read offset correction : 6
Overread into Lead-In and Lead-Out : No
Fill up missing offset samples with silence : Yes
Delete leading and trailing silent blocks : No
Null samples used in CRC calculations : Yes
Used interface : Native Win32 interface for Win NT & 2000
Gap handling : Appended to previous track
Used output format : User Defined Encoder
Selected bitrate : 1024 kBit/s
Quality : High
Add ID3 tag : No
Command line compressor : C:\Program Files\Exact Audio Copy\Flac\flac.exe
Additional command line options : -8 -V -T "ARTIST=%a" -T "TITLE=%t" -T "ALBUM=%g" -T "DATE=%y" -T "TRACKNUMBER=%n" -T "GENRE=%m" -T "COMMENT=ripped by Oleandris" %s
TOC of the extracted CD
Track | Start | Length | Start sector | End sector
---------------------------------------------------------
1 | 0:00.00 | 4:25.73 | 0 | 19947
2 | 4:25.73 | 4:52.25 | 19948 | 41872
3 | 9:18.23 | 4:07.05 | 41873 | 60402
4 | 13:25.28 | 3:50.32 | 60403 | 77684
5 | 17:15.60 | 5:46.45 | 77685 | 103679
6 | 23:02.30 | 4:09.15 | 103680 | 122369
7 | 27:11.45 | 5:57.05 | 122370 | 149149
8 | 33:08.50 | 3:12.45 | 149150 | 163594
9 | 36:21.20 | 3:07.52 | 163595 | 177671
10 | 39:28.72 | 4:04.05 | 177672 | 195976
11 | 43:33.02 | 3:51.72 | 195977 | 213373
12 | 47:24.74 | 4:58.22 | 213374 | 235745
13 | 52:23.21 | 4:24.20 | 235746 | 255565
14 | 56:47.41 | 4:14.21 | 255566 | 274636
Track 1
Filename F:\ЗАГРУЗКИ\ Buddha-Bar Collection I-XIV\4. Buddha-Bar IV By David Visan 2CD (2006)\CD2 Drink\01. Outsized - Karma (Extended Mix).wav
Pre-gap length 0:00:02.00
Peak level 98.8 %
Extraction speed 2.9 X
Track quality 99.9 %
Test CRC 98DF3605
Copy CRC 98DF3605
Accurately ripped (confidence 2) [9A88A7BA]
Copy OK
Track 2
Filename F:\ЗАГРУЗКИ\ Buddha-Bar Collection I-XIV\4. Buddha-Bar IV By David Visan 2CD (2006)\CD2 Drink\02. Time Passing - Party People.wav
Peak level 98.8 %
Extraction speed 4.0 X
Track quality 100.0 %
Test CRC E795D051
Copy CRC E795D051
Accurately ripped (confidence 2) [C03FDC8E]
Copy OK
Track 3
Filename F:\ЗАГРУЗКИ\ Buddha-Bar Collection I-XIV\4. Buddha-Bar IV By David Visan 2CD (2006)\CD2 Drink\03. Elissa - Zambi Ana.wav
Peak level 98.8 %
Extraction speed 3.5 X
Track quality 99.9 %
Test CRC 5C28EB62
Copy CRC 5C28EB62
Accurately ripped (confidence 2) [7A09AA74]
Copy OK
Track 4
Filename F:\ЗАГРУЗКИ\ Buddha-Bar Collection I-XIV\4. Buddha-Bar IV By David Visan 2CD (2006)\CD2 Drink\04. Ishtar - Comme Toi.wav
Peak level 98.0 %
Extraction speed 4.6 X
Track quality 100.0 %
Test CRC 59A4BA2D
Copy CRC 59A4BA2D
Accurately ripped (confidence 2) [95B85340]
Copy OK
Track 5
Filename F:\ЗАГРУЗКИ\ Buddha-Bar Collection I-XIV\4. Buddha-Bar IV By David Visan 2CD (2006)\CD2 Drink\05. Chris Spheeris - Dancing With The Muse.wav
Peak level 98.4 %
Extraction speed 5.2 X
Track quality 100.0 %
Test CRC E69C0F52
Copy CRC E69C0F52
Accurately ripped (confidence 2) [246F83AC]
Copy OK
Track 6
Filename F:\ЗАГРУЗКИ\ Buddha-Bar Collection I-XIV\4. Buddha-Bar IV By David Visan 2CD (2006)\CD2 Drink\06. David Visan & Carlos Campos - Irish Coffee.wav
Peak level 98.3 %
Extraction speed 5.3 X
Track quality 100.0 %
Test CRC 659F8ACE
Copy CRC 659F8ACE
Accurately ripped (confidence 2) [20F204BD]
Copy OK
Track 7
Filename F:\ЗАГРУЗКИ\ Buddha-Bar Collection I-XIV\4. Buddha-Bar IV By David Visan 2CD (2006)\CD2 Drink\07. Llorca - The Novel Sound.wav
Peak level 98.8 %
Extraction speed 5.8 X
Track quality 100.0 %
Test CRC CFC41FBA
Copy CRC CFC41FBA
Accurately ripped (confidence 2) [C74CD88F]
Copy OK
Track 8
Filename F:\ЗАГРУЗКИ\ Buddha-Bar Collection I-XIV\4. Buddha-Bar IV By David Visan 2CD (2006)\CD2 Drink\08. Loving Paris - Loco.wav
Peak level 98.0 %
Extraction speed 4.3 X
Track quality 99.9 %
Test CRC 77B4CFFE
Copy CRC 77B4CFFE
Accurately ripped (confidence 2) [5E5E4717]
Copy OK
Track 9
Filename F:\ЗАГРУЗКИ\ Buddha-Bar Collection I-XIV\4. Buddha-Bar IV By David Visan 2CD (2006)\CD2 Drink\09. Roland Louis - Percussion's Rhythm (Dimitri From Paris Re-edit).wav
Peak level 98.4 %
Extraction speed 5.8 X
Track quality 100.0 %
Test CRC 6D488540
Copy CRC 6D488540
Accurately ripped (confidence 2) [6240D9B8]
Copy OK
Track 10
Filename F:\ЗАГРУЗКИ\ Buddha-Bar Collection I-XIV\4. Buddha-Bar IV By David Visan 2CD (2006)\CD2 Drink\10. Dan Lacksman's Alliance - Louxor In Vegas.wav
Peak level 98.1 %
Extraction speed 5.0 X
Track quality 99.9 %
Test CRC 45F86C9E
Copy CRC 45F86C9E
Accurately ripped (confidence 2) [2D98610A]
Copy OK
Track 11
Filename F:\ЗАГРУЗКИ\ Buddha-Bar Collection I-XIV\4. Buddha-Bar IV By David Visan 2CD (2006)\CD2 Drink\11. Angie Samiou - Agoraki Mou.wav
Peak level 98.1 %
Extraction speed 6.4 X
Track quality 100.0 %
Test CRC 601A02BB
Copy CRC 601A02BB
Accurately ripped (confidence 2) [CB7E693B]
Copy OK
Track 12
Filename F:\ЗАГРУЗКИ\ Buddha-Bar Collection I-XIV\4. Buddha-Bar IV By David Visan 2CD (2006)\CD2 Drink\12. Shad - Zaman.wav
Peak level 98.8 %
Extraction speed 6.9 X
Track quality 100.0 %
Test CRC 86C729D7
Copy CRC 86C729D7
Accurately ripped (confidence 2) [4C34C0A6]
Copy OK
Track 13
Filename F:\ЗАГРУЗКИ\ Buddha-Bar Collection I-XIV\4. Buddha-Bar IV By David Visan 2CD (2006)\CD2 Drink\13. Celia Cruz - Yo Vivire (I Will Survive).wav
Peak level 98.3 %
Extraction speed 7.0 X
Track quality 100.0 %
Test CRC D00C0583
Copy CRC D00C0583
Accurately ripped (confidence 2) [EF05AE63]
Copy OK
Track 14
Filename F:\ЗАГРУЗКИ\ Buddha-Bar Collection I-XIV\4. Buddha-Bar IV By David Visan 2CD (2006)\CD2 Drink\14. Usual Masters - Nocturne In Paris.wav
Peak level 98.0 %
Extraction speed 7.1 X
Track quality 100.0 %
Test CRC F5504B68
Copy CRC F5504B68
Accurately ripped (confidence 2) [5E2EC2F0]
Copy OK
All tracks accurately ripped
No errors occurred
End of status report
==== Log checksum DA6373B88D722630213C1CAB1F43ECE39BCE7B28E5ECE40062DAEE7B1879DC43 ====[/pre]

Содержание индексной карты (.CUE)

REM GENRE Lounge
REM DATE 2006
REM DISCID BF0E4D0E
REM COMMENT "ExactAudioCopy v1.0b1"
PERFORMER "Various"
TITLE "Drink CD2"
FILE "01. Outsized - Karma (Extended Mix).wav" WAVE
TRACK 01 AUDIO
TITLE "Karma (Extended Mix)"
PERFORMER "Outsized"
FLAGS DCP
INDEX 01 00:00:00
FILE "02. Time Passing - Party People.wav" WAVE
TRACK 02 AUDIO
TITLE "Party People"
PERFORMER "Time Passing"
FLAGS DCP
INDEX 01 00:00:00
FILE "03. Elissa - Zambi Ana.wav" WAVE
TRACK 03 AUDIO
TITLE "Zambi Ana"
PERFORMER "Elissa"
FLAGS DCP
INDEX 01 00:00:00
FILE "04. Ishtar - Comme Toi.wav" WAVE
TRACK 04 AUDIO
TITLE "Comme Toi"
PERFORMER "Ishtar"
FLAGS DCP
INDEX 01 00:00:00
FILE "05. Chris Spheeris - Dancing With The Muse.wav" WAVE
TRACK 05 AUDIO
TITLE "Dancing With The Muse"
PERFORMER "Chris Spheeris"
FLAGS DCP
INDEX 01 00:00:00
FILE "06. David Visan & Carlos Campos - Irish Coffee.wav" WAVE
TRACK 06 AUDIO
TITLE "Irish Coffee"
PERFORMER "David Visan & Carlos Campos"
FLAGS DCP
INDEX 01 00:00:00
FILE "07. Llorca - The Novel Sound.wav" WAVE
TRACK 07 AUDIO
TITLE "The Novel Sound"
PERFORMER "Llorca"
FLAGS DCP
INDEX 01 00:00:00
FILE "08. Loving Paris - Loco.wav" WAVE
TRACK 08 AUDIO
TITLE "Loco"
PERFORMER "Loving Paris"
FLAGS DCP
INDEX 01 00:00:00
FILE "09. Roland Louis - Percussion's Rhythm (Dimitri From Paris Re-edit).wav" WAVE
TRACK 09 AUDIO
TITLE "Percussion's Rhythm (Dimitri From Paris Re-edit)"
PERFORMER "Roland Louis"
FLAGS DCP
INDEX 01 00:00:00
FILE "10. Dan Lacksman's Alliance - Louxor In Vegas.wav" WAVE
TRACK 10 AUDIO
TITLE "Louxor In Vegas"
PERFORMER "Dan Lacksman's Alliance"
FLAGS DCP
INDEX 01 00:00:00
FILE "11. Angie Samiou - Agoraki Mou.wav" WAVE
TRACK 11 AUDIO
TITLE "Agoraki Mou"
PERFORMER "Angie Samiou"
FLAGS DCP
INDEX 01 00:00:00
FILE "12. Shad - Zaman.wav" WAVE
TRACK 12 AUDIO
TITLE "Zaman"
PERFORMER "Shad"
FLAGS DCP
INDEX 01 00:00:00
FILE "13. Celia Cruz - Yo Vivire (I Will Survive).wav" WAVE
TRACK 13 AUDIO
TITLE "Yo Vivire (I Will Survive)"
PERFORMER "Celia Cruz"
FLAGS DCP
INDEX 01 00:00:00
FILE "14. Usual Masters - Nocturne In Paris.wav" WAVE
TRACK 14 AUDIO
TITLE "Nocturne In Paris"
PERFORMER "Usual Masters"
FLAGS DCP
INDEX 01 00:00:00[/pre]
Время звучания: 1:01:01


[geo-torrent.biz]_t_3862815.torrent
Torrent: Registered ·  [ 2019-05-15 17:12 ] ·  445d69a27f62ce9cf5d6d998835860b48545b515

344 KB

Status: checked
Completed: 1 times
Size: 22.52 GB
Rating: 
(Votes: 0)
Say thanks: 0  Thanks
Похожие темы
[Profile]    [PM]
Display posts from previous:    
Reply to topic

The time now is: Today 06:55

All times are GMT + 7 Hours



You cannot post new topics in this forum
You cannot reply to topics in this forum
You cannot edit your posts in this forum
You cannot delete your posts in this forum
You cannot vote in polls in this forum
You cannot attach files in this forum
You can download files in this forum