(Ambient, New Age) [CD] VA - 環境音楽 Kankyō Ongaku: Japanese Ambient, Environmental & New Age Music 1980–1990 [l. Light in the Attic Records] - 2019, FLAC (tracks+.cue), lossless

Reply to topic
DL-List and Torrent activity [Update пиров]
Size:  481 MB   |    Registered:  5 months 3 days   |    Completed:  1 time

Seeder not seen: 4 months 28 days

 
   
 
 
 
Author Message

Пушистый

Post 15-May-2019 12:01

[Quote]

va — kankyō ongaku: japanese ambient,
environmental & new age music 1980–1990
  • Жанры: Ambient | New Age | Progressive Electronic
  • Лэйбл: Light in the Attic Records (USA)
  • Номер по каталогу: LITA167
  • Источник: none redacted.ch
  • альбома: 15.02.2019
  • Аудио кодек: FLAC (.flac)
  • Битрейт аудио: lossless
  • Тип рипа: tracks+.cue
  • Формат файла: CDs, Compilation
    .
  • track listing
    CD1
    01 Satoshi Ashikawa — Still Space [04:00]
    02 Yoshio Ojima — Glass Chattering [05:57]
    03 Hideki Matsutake — Nemureru yoru (Karaoke version) [06:26]
    04 Joe Hisaishi — Islander [05:13]
    05 Yoshiaki Ochi — Ear Dreamin' [04:46]
    06 Masashi Kitamura + Phonogenix — Variation・III [03:36]
    07 Interior — Park [04:06]
    08 Yoichiro Yoshikawa — Nube [02:15]
    09 Yoshio Suzuki — Meet Me in the Sheep Meadow [03:26]
    10 Toshi Tsuchitori — Ishiura (abridged) [05:14]
    11 Shiho Yabuki — Tomoshibi (abridged) [02:37]
    12 Toshifumi Hinata — Chaconne [04:29]
    CD2
    01 Yasuaki Shimizu — Seiko 3 [01:20]
    02 Inoyama Land — Apple Star [06:01]
    03 Hiroshi Yoshimura — Blink [04:45]
    04 Fumio Miyashita — See the Light (abridged) [06:51]
    05 Akira Ito — Praying for Mother / Earth Part 1 [04:14]
    06 Jun Fukamachi — Breathing New Life [04:57]
    07 Takashi Toyoda — Snow [05:00]
    08 Yellow Magic Orchestra — Loom [05:24]
    09 Takashi Kokubo — A Dream Sails Out to Sea - Scene 3 [06:48]
    10 Masahiro Sugaya — Umi no sunatsubu [01:13]
    11 Haruomi Hosono — Original BGM [15:56]
    total length (01:54:25)

CD 1XLD

X Lossless Decoder version 20161007 (149.3)
XLD extraction logfile from 2019-02-12 15:12:19 -0500
Various Artists / Kankyo Ongaku: Japanese Environmental, Ambient & New Age Music 1980-1990
Used drive : HL-DT-ST DVDRW GS31N (revision TA17)Media type : Pressed CD
Ripper mode : XLD Secure RipperDisable audio cache : OK for the drive with a cache less than 1375KiBMake use of C2 pointers : NORead offset correction : 667Max retry count : 20Gap status : Analyzed, Appended (except HTOA)
TOC of the extracted CD Track | Start | Length | Start sector | End sector --------------------------------------------------------- 1 | 00:00:00 | 03:59:13 | 0 | 17937 2 | 03:59:13 | 05:56:39 | 17938 | 44676 3 | 09:55:52 | 06:25:54 | 44677 | 73605 4 | 16:21:31 | 05:12:66 | 73606 | 97071 5 | 21:34:22 | 04:45:13 | 97072 | 118459 6 | 26:19:35 | 03:35:43 | 118460 | 134627 7 | 29:55:03 | 04:05:72 | 134628 | 153074 8 | 34:01:00 | 02:14:41 | 153075 | 163165 9 | 36:15:41 | 03:25:72 | 163166 | 178612 10 | 39:41:38 | 05:13:62 | 178613 | 202149 11 | 44:55:25 | 02:36:61 | 202150 | 213910 12 | 47:32:11 | 04:28:46 | 213911 | 234056
AccurateRip Summary Disc not found in AccurateRip DB.
All Tracks Album gain : -0.40 dB Peak : 0.944092 Statistics Read error : 0 Jitter error (maybe fixed) : 0 Retry sector count : 0 Damaged sector count : 0
Track 01 Filename : /Users/K/Desktop/kankyo 1/Compilations - Kankyo Ongaku- Japanese Environmental, Ambient & New Age Music 1980-1990 (Unknown Year) [FLAC]/01 Still Space.flac Pre-gap length : 00:02:00
Track gain : 2.01 dB Peak : 0.796631 CRC32 hash (test run) : 6D974A02 CRC32 hash : 6D974A02 CRC32 hash (skip zero) : 1317F069 AccurateRip v1 signature : F5DB3931 AccurateRip v2 signature : DAB26BF1 ->Track not present in AccurateRip database. Statistics Read error : 0 Jitter error (maybe fixed) : 0 Retry sector count : 0 Damaged sector count : 0
Track 02 Filename : /Users/K/Desktop/kankyo 1/Compilations - Kankyo Ongaku- Japanese Environmental, Ambient & New Age Music 1980-1990 (Unknown Year) [FLAC]/02 Glass Chattering.flac
Track gain : -0.12 dB Peak : 0.631622 CRC32 hash (test run) : FE9DACA9 CRC32 hash : FE9DACA9 CRC32 hash (skip zero) : 539F5DFD AccurateRip v1 signature : FF5F6BC0 AccurateRip v2 signature : 7E38FEA7 ->Track not present in AccurateRip database. Statistics Read error : 0 Jitter error (maybe fixed) : 0 Retry sector count : 0 Damaged sector count : 0
Track 03 Filename : /Users/K/Desktop/kankyo 1/Compilations - Kankyo Ongaku- Japanese Environmental, Ambient & New Age Music 1980-1990 (Unknown Year) [FLAC]/03 Nemureru Yoru (Karaoke Version).flac
Track gain : 0.40 dB Peak : 0.944092 CRC32 hash (test run) : D3808231 CRC32 hash : D3808231 CRC32 hash (skip zero) : 50E16B04 AccurateRip v1 signature : 54352403 AccurateRip v2 signature : 3D71E030 ->Track not present in AccurateRip database. Statistics Read error : 0 Jitter error (maybe fixed) : 0 Retry sector count : 0 Damaged sector count : 0
Track 04 Filename : /Users/K/Desktop/kankyo 1/Compilations - Kankyo Ongaku- Japanese Environmental, Ambient & New Age Music 1980-1990 (Unknown Year) [FLAC]/04 Islander.flac
Track gain : 1.04 dB Peak : 0.922638 CRC32 hash (test run) : EF9C2D9D CRC32 hash : EF9C2D9D CRC32 hash (skip zero) : 5988CA8B AccurateRip v1 signature : 8745F0D4 AccurateRip v2 signature : 6EDEDE4B ->Track not present in AccurateRip database. Statistics Read error : 0 Jitter error (maybe fixed) : 0 Retry sector count : 0 Damaged sector count : 0
Track 05 Filename : /Users/K/Desktop/kankyo 1/Compilations - Kankyo Ongaku- Japanese Environmental, Ambient & New Age Music 1980-1990 (Unknown Year) [FLAC]/05 Ear Dreamin'.flac
Track gain : -2.12 dB Peak : 0.944061 CRC32 hash (test run) : 372B5371 CRC32 hash : 372B5371 CRC32 hash (skip zero) : 691FA074 AccurateRip v1 signature : 85F88EFB AccurateRip v2 signature : 1B658934 ->Track not present in AccurateRip database. Statistics Read error : 0 Jitter error (maybe fixed) : 0 Retry sector count : 0 Damaged sector count : 0
Track 06 Filename : /Users/K/Desktop/kankyo 1/Compilations - Kankyo Ongaku- Japanese Environmental, Ambient & New Age Music 1980-1990 (Unknown Year) [FLAC]/06 Variation - III.flac
Track gain : -0.23 dB Peak : 0.944092 CRC32 hash (test run) : 9CF565C4 CRC32 hash : 9CF565C4 CRC32 hash (skip zero) : 1921FE3E AccurateRip v1 signature : 3A1C0EC5 AccurateRip v2 signature : 4CF49950 ->Track not present in AccurateRip database. Statistics Read error : 0 Jitter error (maybe fixed) : 0 Retry sector count : 0 Damaged sector count : 0
Track 07 Filename : /Users/K/Desktop/kankyo 1/Compilations - Kankyo Ongaku- Japanese Environmental, Ambient & New Age Music 1980-1990 (Unknown Year) [FLAC]/07 Park.flac
Track gain : -3.54 dB Peak : 0.944092 CRC32 hash (test run) : A05CE52C CRC32 hash : A05CE52C CRC32 hash (skip zero) : 11524451 AccurateRip v1 signature : AF1815F4 AccurateRip v2 signature : ACCAB70A ->Track not present in AccurateRip database. Statistics Read error : 0 Jitter error (maybe fixed) : 0 Retry sector count : 0 Damaged sector count : 0
Track 08 Filename : /Users/K/Desktop/kankyo 1/Compilations - Kankyo Ongaku- Japanese Environmental, Ambient & New Age Music 1980-1990 (Unknown Year) [FLAC]/08 Nube.flac
Track gain : -1.44 dB Peak : 0.831512 CRC32 hash (test run) : 910E7973 CRC32 hash : 910E7973 CRC32 hash (skip zero) : 8EFB1CD6 AccurateRip v1 signature : 43563F58 AccurateRip v2 signature : 19FC56C3 ->Track not present in AccurateRip database. Statistics Read error : 0 Jitter error (maybe fixed) : 0 Retry sector count : 0 Damaged sector count : 0
Track 09 Filename : /Users/K/Desktop/kankyo 1/Compilations - Kankyo Ongaku- Japanese Environmental, Ambient & New Age Music 1980-1990 (Unknown Year) [FLAC]/09 Meet Me In The Sheep Meadow.flac
Track gain : -0.78 dB Peak : 0.601532 CRC32 hash (test run) : 389352C3 CRC32 hash : 389352C3 CRC32 hash (skip zero) : A30AB2F6 AccurateRip v1 signature : 3D011C40 AccurateRip v2 signature : 392924C1 ->Track not present in AccurateRip database. Statistics Read error : 0 Jitter error (maybe fixed) : 0 Retry sector count : 0 Damaged sector count : 0
Track 10 Filename : /Users/K/Desktop/kankyo 1/Compilations - Kankyo Ongaku- Japanese Environmental, Ambient & New Age Music 1980-1990 (Unknown Year) [FLAC]/10 Ishiura (Abridged).flac
Track gain : 10.28 dB Peak : 0.941528 CRC32 hash (test run) : E666D1C9 CRC32 hash : E666D1C9 CRC32 hash (skip zero) : E2262F39 AccurateRip v1 signature : 01EEDAB6 AccurateRip v2 signature : 94C29495 ->Track not present in AccurateRip database. Statistics Read error : 0 Jitter error (maybe fixed) : 0 Retry sector count : 0 Damaged sector count : 0
Track 11 Filename : /Users/K/Desktop/kankyo 1/Compilations - Kankyo Ongaku- Japanese Environmental, Ambient & New Age Music 1980-1990 (Unknown Year) [FLAC]/11 Tomoshibi (Abridged).flac
Track gain : 0.09 dB Peak : 0.771240 CRC32 hash (test run) : 334CB57D CRC32 hash : 334CB57D CRC32 hash (skip zero) : 554DFC0B AccurateRip v1 signature : 5FE76E01 AccurateRip v2 signature : 41EC35D7 ->Track not present in AccurateRip database. Statistics Read error : 0 Jitter error (maybe fixed) : 0 Retry sector count : 0 Damaged sector count : 0
Track 12 Filename : /Users/K/Desktop/kankyo 1/Compilations - Kankyo Ongaku- Japanese Environmental, Ambient & New Age Music 1980-1990 (Unknown Year) [FLAC]/12 Chaconne.flac
Track gain : 0.05 dB Peak : 0.682800 CRC32 hash (test run) : 117A7CAC CRC32 hash : 117A7CAC CRC32 hash (skip zero) : 3C5D4919 AccurateRip v1 signature : 42B6F093 AccurateRip v2 signature : FD62352F ->Track not present in AccurateRip database. Statistics Read error : 0 Jitter error (maybe fixed) : 0 Retry sector count : 0 Damaged sector count : 0
No errors occurred
End of status report
-----BEGIN XLD SIGNATURE-----Qr8G8lvusJd9A9bUISOaX.RD63bJLK0ZOx5rdRVBwufJ.DKb0mGAt02RhZr1dLWtYQpCfvpjJz6Zmaj.3l7CBvdP0o5W.oMsXnrJK9G-----END XLD SIGNATURE-----

.CUE

TITLE "Kankyō Ongaku: Japanese Environmental, Ambient & New Age Music 1980-1990"PERFORMER "Various Artists"REM GENRE "Ambient"REM DATE "2019"REM DISCNUMBER 1REM TOTALDISCS 1REM DISCID C00C300CREM REPLAYGAIN_ALBUM_GAIN -0.40 dBREM REPLAYGAIN_ALBUM_PEAK 0.944092REM COMPILATION TRUEFILE "01. Satoshi Ashikawa - Still Space.flac" WAVE TRACK 01 AUDIO TITLE "Still Space" PERFORMER "Satoshi Ashikawa" ISRC USDEA1816701 REM REPLAYGAIN_TRACK_GAIN 2.01 dB REM REPLAYGAIN_TRACK_PEAK 0.796631 INDEX 01 00:00:00FILE "02. Yoshio Ojima - Glass Chattering.flac" WAVE TRACK 02 AUDIO TITLE "Glass Chattering" PERFORMER "Yoshio Ojima" ISRC JPZ921702692 REM REPLAYGAIN_TRACK_GAIN -0.12 dB REM REPLAYGAIN_TRACK_PEAK 0.631622 INDEX 01 00:00:00FILE "03. Hideki Matsutake - Nemureru yoru (Karaoke version).flac" WAVE TRACK 03 AUDIO TITLE "Nemureru yoru (Karaoke version)" PERFORMER "Hideki Matsutake" ISRC JPTO00802395 REM REPLAYGAIN_TRACK_GAIN 0.40 dB REM REPLAYGAIN_TRACK_PEAK 0.944092 INDEX 01 00:00:00FILE "04. Joe Hisaishi - Islander.flac" WAVE TRACK 04 AUDIO TITLE "Islander" PERFORMER "Joe Hisaishi" ISRC JPTK00904500 REM REPLAYGAIN_TRACK_GAIN 1.04 dB REM REPLAYGAIN_TRACK_PEAK 0.922638 INDEX 01 00:00:00FILE "05. Yoshiaki Ochi - Ear Dreamin'.flac" WAVE TRACK 05 AUDIO TITLE "Ear Dreamin'" PERFORMER "Yoshiaki Ochi" ISRC JPZ921702693 REM REPLAYGAIN_TRACK_GAIN -2.12 dB REM REPLAYGAIN_TRACK_PEAK 0.944061 INDEX 01 00:00:00FILE "06. Masashi Kitamura + Phonogenix - Variation・III.flac" WAVE TRACK 06 AUDIO TITLE "Variation・III" PERFORMER "Masashi Kitamura + Phonogenix" ISRC USDEA1816706 REM REPLAYGAIN_TRACK_GAIN -0.23 dB REM REPLAYGAIN_TRACK_PEAK 0.944092 INDEX 01 00:00:00FILE "07. Interior - Park.flac" WAVE TRACK 07 AUDIO TITLE "Park" PERFORMER "Interior" ISRC JPAL08300790 REM REPLAYGAIN_TRACK_GAIN -3.54 dB REM REPLAYGAIN_TRACK_PEAK 0.944092 INDEX 01 00:00:00FILE "08. Yoichiro Yoshikawa - Nube.flac" WAVE TRACK 08 AUDIO TITLE "Nube" PERFORMER "Yoichiro Yoshikawa" ISRC JPTO08813360 REM REPLAYGAIN_TRACK_GAIN -1.44 dB REM REPLAYGAIN_TRACK_PEAK 0.831512 INDEX 01 00:00:00FILE "09. Yoshio Suzuki - Meet Me in the Sheep Meadow.flac" WAVE TRACK 09 AUDIO TITLE "Meet Me in the Sheep Meadow" PERFORMER "Yoshio Suzuki" ISRC JPVI08404050 REM REPLAYGAIN_TRACK_GAIN -0.78 dB REM REPLAYGAIN_TRACK_PEAK 0.601532 INDEX 01 00:00:00FILE "10. Toshi Tsuchitori - Ishiura (abridged).flac" WAVE TRACK 10 AUDIO TITLE "Ishiura (abridged)" PERFORMER "Toshi Tsuchitori" ISRC USDEA1816710 REM REPLAYGAIN_TRACK_GAIN 10.28 dB REM REPLAYGAIN_TRACK_PEAK 0.941528 INDEX 01 00:00:00FILE "11. Shiho Yabuki - Tomoshibi (abridged).flac" WAVE TRACK 11 AUDIO TITLE "Tomoshibi (abridged)" PERFORMER "Shiho Yabuki" ISRC USDEA1816711 REM REPLAYGAIN_TRACK_GAIN 0.09 dB REM REPLAYGAIN_TRACK_PEAK 0.771240 INDEX 01 00:00:00FILE "12. Toshifumi Hinata - Chaconne.flac" WAVE TRACK 12 AUDIO TITLE "Chaconne" PERFORMER "Toshifumi Hinata" ISRC JPA308500062 REM REPLAYGAIN_TRACK_GAIN 0.05 dB REM REPLAYGAIN_TRACK_PEAK 0.682800 INDEX 01 00:00:00

CD 2XLD

X Lossless Decoder version 20161007 (149.3)
XLD extraction logfile from 2019-02-12 15:54:36 -0500
Various Artists / Kankyō Ongaku: Japanese Ambient, Environmental & New Age Music 1980-1990
Used drive : HL-DT-ST DVDRW GS31N (revision TA17)Media type : Pressed CD
Ripper mode : XLD Secure RipperDisable audio cache : OK for the drive with a cache less than 1375KiBMake use of C2 pointers : NORead offset correction : 667Max retry count : 20Gap status : Analyzed, Appended (except HTOA)
TOC of the extracted CD Track | Start | Length | Start sector | End sector --------------------------------------------------------- 1 | 00:00:00 | 01:19:52 | 0 | 5976 2 | 01:19:52 | 06:00:71 | 5977 | 33047 3 | 07:20:48 | 04:44:29 | 33048 | 54376 4 | 12:05:02 | 06:50:46 | 54377 | 85172 5 | 18:55:48 | 04:13:51 | 85173 | 104198 6 | 23:09:24 | 04:56:48 | 104199 | 126446 7 | 28:05:72 | 04:59:58 | 126447 | 148929 8 | 33:05:55 | 05:23:25 | 148930 | 173179 9 | 38:29:05 | 06:47:41 | 173180 | 203745 10 | 45:16:46 | 01:12:11 | 203746 | 209156 11 | 46:28:57 | 15:55:04 | 209157 | 280785
AccurateRip Summary Disc not found in AccurateRip DB.
All Tracks Album gain : -2.88 dB Peak : 0.944092 Statistics Read error : 0 Jitter error (maybe fixed) : 0 Retry sector count : 0 Damaged sector count : 0
Track 01 Filename : /Users/K/Desktop/kankyo CD2/Compilations - Kankyō Ongaku- Japanese Ambient, Environmental & New Age Music 1980-1990 (2019) [FLAC]/01 Seiko 3.flac Pre-gap length : 00:02:00
Track gain : -0.19 dB Peak : 0.832184 CRC32 hash (test run) : D910897A CRC32 hash : D910897A CRC32 hash (skip zero) : 943DDDF7 AccurateRip v1 signature : 1D4F956E AccurateRip v2 signature : 41B32C5F ->Track not present in AccurateRip database. Statistics Read error : 0 Jitter error (maybe fixed) : 0 Retry sector count : 0 Damaged sector count : 0
Track 02 Filename : /Users/K/Desktop/kankyo CD2/Compilations - Kankyō Ongaku- Japanese Ambient, Environmental & New Age Music 1980-1990 (2019) [FLAC]/02 Apple Star.flac
Track gain : 1.23 dB Peak : 0.640228 CRC32 hash (test run) : 6C49C4E7 CRC32 hash : 6C49C4E7 CRC32 hash (skip zero) : 0B6B050E AccurateRip v1 signature : 72F5DDE3 AccurateRip v2 signature : CF279EB6 ->Track not present in AccurateRip database. Statistics Read error : 0 Jitter error (maybe fixed) : 0 Retry sector count : 0 Damaged sector count : 0
Track 03 Filename : /Users/K/Desktop/kankyo CD2/Compilations - Kankyō Ongaku- Japanese Ambient, Environmental & New Age Music 1980-1990 (2019) [FLAC]/03 Blink.flac
Track gain : -2.14 dB Peak : 0.827423 CRC32 hash (test run) : 38ACEE87 CRC32 hash : 38ACEE87 CRC32 hash (skip zero) : 4E274863 AccurateRip v1 signature : F3DAE752 AccurateRip v2 signature : A3567846 ->Track not present in AccurateRip database. Statistics Read error : 0 Jitter error (maybe fixed) : 0 Retry sector count : 0 Damaged sector count : 0
Track 04 Filename : /Users/K/Desktop/kankyo CD2/Compilations - Kankyō Ongaku- Japanese Ambient, Environmental & New Age Music 1980-1990 (2019) [FLAC]/04 See The Light (abridged).flac
Track gain : 4.44 dB Peak : 0.944061 CRC32 hash (test run) : 75395503 CRC32 hash : 75395503 CRC32 hash (skip zero) : 73EC5DDD AccurateRip v1 signature : 8848EEDA AccurateRip v2 signature : 509276FE ->Track not present in AccurateRip database. Statistics Read error : 0 Jitter error (maybe fixed) : 0 Retry sector count : 0 Damaged sector count : 0
Track 05 Filename : /Users/K/Desktop/kankyo CD2/Compilations - Kankyō Ongaku- Japanese Ambient, Environmental & New Age Music 1980-1990 (2019) [FLAC]/05 Praying For Mother - Earth Part 1.flac
Track gain : 2.12 dB Peak : 0.767090 CRC32 hash (test run) : E249BBF5 CRC32 hash : E249BBF5 CRC32 hash (skip zero) : 885B8074 AccurateRip v1 signature : 3DCE6384 AccurateRip v2 signature : 6541E600 ->Track not present in AccurateRip database. Statistics Read error : 0 Jitter error (maybe fixed) : 0 Retry sector count : 0 Damaged sector count : 0
Track 06 Filename : /Users/K/Desktop/kankyo CD2/Compilations - Kankyō Ongaku- Japanese Ambient, Environmental & New Age Music 1980-1990 (2019) [FLAC]/06 Breathing New Life.flac
Track gain : -1.51 dB Peak : 0.944061 CRC32 hash (test run) : EA7E3E7F CRC32 hash : EA7E3E7F CRC32 hash (skip zero) : 375C373F AccurateRip v1 signature : 0F316B25 AccurateRip v2 signature : A57B8089 ->Track not present in AccurateRip database. Statistics Read error : 0 Jitter error (maybe fixed) : 0 Retry sector count : 0 Damaged sector count : 0
Track 07 Filename : /Users/K/Desktop/kankyo CD2/Compilations - Kankyō Ongaku- Japanese Ambient, Environmental & New Age Music 1980-1990 (2019) [FLAC]/07 Snow.flac
Track gain : -3.11 dB Peak : 0.867859 CRC32 hash (test run) : C5ECDC48 CRC32 hash : C5ECDC48 CRC32 hash (skip zero) : E277094B AccurateRip v1 signature : 94CADC89 AccurateRip v2 signature : 22D5C2C4 ->Track not present in AccurateRip database. Statistics Read error : 0 Jitter error (maybe fixed) : 0 Retry sector count : 0 Damaged sector count : 0
Track 08 Filename : /Users/K/Desktop/kankyo CD2/Compilations - Kankyō Ongaku- Japanese Ambient, Environmental & New Age Music 1980-1990 (2019) [FLAC]/08 Loom.flac
Track gain : -2.13 dB Peak : 0.944061 CRC32 hash (test run) : F257C892 CRC32 hash : F257C892 CRC32 hash (skip zero) : FAE0DA25 AccurateRip v1 signature : F29DC7AF AccurateRip v2 signature : CCB0C8EE ->Track not present in AccurateRip database. Statistics Read error : 0 Jitter error (maybe fixed) : 0 Retry sector count : 0 Damaged sector count : 0
Track 09 Filename : /Users/K/Desktop/kankyo CD2/Compilations - Kankyō Ongaku- Japanese Ambient, Environmental & New Age Music 1980-1990 (2019) [FLAC]/09 A Dream Sails Out To Sea - Scene 3.flac
Track gain : -0.65 dB Peak : 0.944092 CRC32 hash (test run) : 49FD3491 CRC32 hash : 49FD3491 CRC32 hash (skip zero) : 0E2BBCD2 AccurateRip v1 signature : 7038204E AccurateRip v2 signature : BC1629B3 ->Track not present in AccurateRip database. Statistics Read error : 0 Jitter error (maybe fixed) : 0 Retry sector count : 0 Damaged sector count : 0
Track 10 Filename : /Users/K/Desktop/kankyo CD2/Compilations - Kankyō Ongaku- Japanese Ambient, Environmental & New Age Music 1980-1990 (2019) [FLAC]/10 Umi No Sunatsubu.flac
Track gain : 6.77 dB Peak : 0.540802 CRC32 hash (test run) : 3FC118CE CRC32 hash : 3FC118CE CRC32 hash (skip zero) : A368716C AccurateRip v1 signature : 2307661C AccurateRip v2 signature : D1F5EC6C ->Track not present in AccurateRip database. Statistics Read error : 0 Jitter error (maybe fixed) : 0 Retry sector count : 0 Damaged sector count : 0
Track 11 Filename : /Users/K/Desktop/kankyo CD2/Compilations - Kankyō Ongaku- Japanese Ambient, Environmental & New Age Music 1980-1990 (2019) [FLAC]/11 Original BGM.flac
Track gain : -5.07 dB Peak : 0.944092 CRC32 hash (test run) : DB13B53B CRC32 hash : DB13B53B CRC32 hash (skip zero) : 7287AFBA AccurateRip v1 signature : 9D3BF28B AccurateRip v2 signature : F11C1004 ->Track not present in AccurateRip database. Statistics Read error : 0 Jitter error (maybe fixed) : 0 Retry sector count : 0 Damaged sector count : 0
No errors occurred
End of status report
-----BEGIN XLD SIGNATURE-----RbShHJbKuAab5CGHMqGNrZBKAlmGM1Qmb7hTHJnmQSRI92zT0nLa3wsxEZRdvjQPP8WaXMF82sYEXVKcfrsiV5XE1nKeR9_l3Q1iwzO-----END XLD SIGNATURE-----

.CUE

TITLE "Kankyō Ongaku: Japanese Ambient, Environmental & New Age Music 1980-1990"PERFORMER "Various Artists"REM GENRE "Ambient"REM DATE "2019"REM DISCNUMBER 2REM TOTALDISCS 2REM DISCID 990E9F0BREM REPLAYGAIN_ALBUM_GAIN -2.88 dBREM REPLAYGAIN_ALBUM_PEAK 0.944092REM COMPILATION TRUEFILE "01. Yasuaki Shimizu - Seiko 3.flac" WAVE TRACK 01 AUDIO TITLE "Seiko 3" PERFORMER "Yasuaki Shimizu" ISRC BE6F51700860 REM REPLAYGAIN_TRACK_GAIN -0.19 dB REM REPLAYGAIN_TRACK_PEAK 0.832184 INDEX 01 00:00:00FILE "02. Inoyama Land - Apple Star.flac" WAVE TRACK 02 AUDIO TITLE "Apple Star" PERFORMER "Inoyama Land" ISRC JPAL08300790 REM REPLAYGAIN_TRACK_GAIN 1.23 dB REM REPLAYGAIN_TRACK_PEAK 0.640228 INDEX 01 00:00:00FILE "03. Hiroshi Yoshimura - Blink.flac" WAVE TRACK 03 AUDIO TITLE "Blink" PERFORMER "Hiroshi Yoshimura" ISRC USDEA1759903 REM REPLAYGAIN_TRACK_GAIN -2.14 dB REM REPLAYGAIN_TRACK_PEAK 0.827423 INDEX 01 00:00:00FILE "04. Fumio Miyashita - See the Light (abridged).flac" WAVE TRACK 04 AUDIO TITLE "See the Light (abridged)" PERFORMER "Fumio Miyashita" ISRC USDEA1816716 REM REPLAYGAIN_TRACK_GAIN 4.44 dB REM REPLAYGAIN_TRACK_PEAK 0.944061 INDEX 01 00:00:00FILE "05. Akira Ito - Praying for Mother. Earth Part 1.flac" WAVE TRACK 05 AUDIO TITLE "Praying for Mother / Earth Part 1" PERFORMER "Akira Ito" ISRC USDEA1816717 REM REPLAYGAIN_TRACK_GAIN 2.12 dB REM REPLAYGAIN_TRACK_PEAK 0.767090 INDEX 01 00:00:00FILE "06. Jun Fukamachi - Breathing New Life.flac" WAVE TRACK 06 AUDIO TITLE "Breathing New Life" PERFORMER "Jun Fukamachi" ISRC DETB31726222 REM REPLAYGAIN_TRACK_GAIN -1.51 dB REM REPLAYGAIN_TRACK_PEAK 0.944061 INDEX 01 00:00:00FILE "07. Takashi Toyoda - Snow.flac" WAVE TRACK 07 AUDIO TITLE "Snow" PERFORMER "Takashi Toyoda" ISRC USDEA1816719 REM REPLAYGAIN_TRACK_GAIN -3.11 dB REM REPLAYGAIN_TRACK_PEAK 0.867859 INDEX 01 00:00:00FILE "08. Yellow Magic Orchestra - Loom.flac" WAVE TRACK 08 AUDIO TITLE "Loom" PERFORMER "Yellow Magic Orchestra" ISRC JPAL09900810 REM REPLAYGAIN_TRACK_GAIN -2.13 dB REM REPLAYGAIN_TRACK_PEAK 0.944061 INDEX 01 00:00:00FILE "09. Takashi Kokubo - A Dream Sails Out to Sea - Scene 3.flac" WAVE TRACK 09 AUDIO TITLE "A Dream Sails Out to Sea - Scene 3" PERFORMER "Takashi Kokubo" ISRC USDEA1816721 REM REPLAYGAIN_TRACK_GAIN -0.65 dB REM REPLAYGAIN_TRACK_PEAK 0.944092 INDEX 01 00:00:00FILE "10. Masahiro Sugaya - Umi no sunatsubu.flac" WAVE TRACK 10 AUDIO TITLE "Umi no sunatsubu" PERFORMER "Masahiro Sugaya" ISRC USDEA1816722 REM REPLAYGAIN_TRACK_GAIN 6.77 dB REM REPLAYGAIN_TRACK_PEAK 0.540802 INDEX 01 00:00:00FILE "11. Haruomi Hosono - Original BGM.flac" WAVE TRACK 11 AUDIO TITLE "Original BGM" PERFORMER "Haruomi Hosono" ISRC USDEA1816723 REM REPLAYGAIN_TRACK_GAIN -5.07 dB REM REPLAYGAIN_TRACK_PEAK 0.944092 INDEX 01 00:00:00
9.0


[geo-torrent.biz]_t_5730474.torrent
Torrent: Registered ·  [ 2019-05-15 12:01 ] ·  739ad07b00725c7e44fdc75f60397e711b2b26b2

21 KB

Status: checked
Completed: 1 times
Size: 481 MB
Rating: 
(Votes: 0)
Say thanks: 0  Thanks
Похожие темы
[Profile]    [PM]
Display posts from previous:    
Reply to topic

The time now is: Today 06:55

All times are GMT + 7 Hours



You cannot post new topics in this forum
You cannot reply to topics in this forum
You cannot edit your posts in this forum
You cannot delete your posts in this forum
You cannot vote in polls in this forum
You cannot attach files in this forum
You can download files in this forum