[TR24][OF][World Music][Piano Solo] AJ Hickling - Cinematic - 2017 (Classical Piano, World Music, Modern Classical, Relaxing, Ambient)

Reply to topic
DL-List and Torrent activity [Update пиров]
Size:  1.2 GB   |    Registered:  5 months 3 days   |    Completed:  0 times

Seeder not seen: Never

 
   
 
 
 
Author Message

Кейт

Post 11-May-2019 22:36

[Quote]

AJ Hickling / Cinematic
Формат файла записи/Источник записи: [TR24][OF]
Наличие водяных знаков: Нет
Год издания/переиздания диска: 2017
Жанр: Classical Piano, World Music, Modern Classical, Relaxing, Ambient, Piano Solo
Издатель (лейбл): evolvingrhythms.com
Продолжительность: 01:14:40
Наличие сканов в содержимом раздачи: Только обложка альбома
Треклист:
1. C minor Medley 9:22
2. Camielle 5:01
3. G minor Medley 8:28
4. The Lake - Dusk 13:47
5. B flat major 2:44
6. The Lake 9:56
7. Echoes 7:00
8. Oceans 4:59
9. On the Face of the Snowflake 4:16
10. Elizabeth Rose 5:04
11. Rain 4:03
Формат файла: AIFF (*.aiff)
Тип рипа: tracks
Разрядность: 24/44,1
Формат файла: PCM
Количество каналов: 2.0

Лог проверки качества

foobar2000 1.3.17 / Замер динамического диапазона (DR) 1.1.1Дата отчёта: 2019-05-11 17:46:55
--------------------------------------------------------------------------------Анализ: AJ Hickling / Cinematic--------------------------------------------------------------------------------
DR Пики RMS Продолжительность трека--------------------------------------------------------------------------------DR11 -0.10 дБ -15.64 дБ 9:22 01-C minor MedleyDR10 -0.10 дБ -14.25 дБ 5:01 02-CamielleDR11 -0.10 дБ -15.83 дБ 8:28 03-G minor MedleyDR13 -1.54 дБ -20.66 дБ 13:47 04-The Lake - DuskDR11 -0.10 дБ -14.62 дБ 2:44 05-B flat majorDR12 -0.10 дБ -15.27 дБ 9:56 06-The LakeDR10 -0.10 дБ -15.15 дБ 7:00 07-EchoesDR11 -0.10 дБ -15.83 дБ 4:59 08-OceansDR10 -0.10 дБ -14.49 дБ 4:16 09-On the Face of the SnowflakeDR9 -0.10 дБ -14.15 дБ 5:04 10-Elizabeth RoseDR12 -1.35 дБ -17.08 дБ 4:03 11-Rain--------------------------------------------------------------------------------
Количество треков: 11Реальные значения DR: DR11
Частота: 48000 ГцКаналов: 2Разрядность: 24Битрейт: 2304 кбит/сКодек: PCM================================================================================
Доп. информация: These are refined studio versions of my favorite original compositions over the last three albums. Unlike the other albums, this collection features my first attempt at some supporting string arrangements, and has more emphasis on production quality. Enjoy, Biglove!
AJ
credits
released March 15, 2017
Источник (релизер): bandcamp.com
YouTube: YouTube
Facebook: Facebook


[geo-torrent.biz]_t_5730648.torrent
Torrent: Registered ·  [ 2019-05-11 22:36 ] ·  c7f7f800cdd530658a0e954a3009feb555e8598b

13 KB

Status: checked
Completed: 0 times
Size: 1.2 GB
Rating: 
(Votes: 0)
Say thanks: 0  Thanks
Похожие темы
[Profile]    [PM]
Display posts from previous:    
Reply to topic

The time now is: Today 09:15

All times are GMT + 7 Hours



You cannot post new topics in this forum
You cannot reply to topics in this forum
You cannot edit your posts in this forum
You cannot delete your posts in this forum
You cannot vote in polls in this forum
You cannot attach files in this forum
You can download files in this forum