(New Wave, Chanson, Indie Rock) [CD] Внезапный Сыч - Короче Ты Понял - 1990, FLAC (tracks+.cue), lossless

Reply to topic
DL-List and Torrent activity [Update пиров]
Size:  402 MB   |    Registered:  5 months 7 days   |    Completed:  0 times

Seeder not seen: Never

 
   
 
 
 
Author Message

Mak

Post 11-May-2019 10:48

[Quote]

Внезапный Сыч / Короче Ты Понял
Жанр: New Wave, Chanson, Indie Rock
Носитель: CD
Страна-производитель диска (релиза): Россия
Год издания: 1990
Издатель (лейбл): Kapkan Records
Номер по каталогу: none
Страна исполнителя (группы): Россия, Санкт-Петербург
Аудиокодек: FLAC (*.flac)
Тип рипа: tracks+.cue
Продолжительность: 44:05.227 (116 654 496 samples)
Источник: собственный рип
Наличие сканов в содержимом раздачи: да
Треклист:
01. ДНК (Девочка Не Кислая) [0:02:59.61]
02. Много Хорошего! [0:03:05.24]
03. Опух, Что Ли? [0:03:11.08]
04. Нормально! [0:02:18.74]
05. Веселый Подводник [0:03:53.45]
06. КТП (Короче Ты Понял!) [0:03:31.04]
07. Мама [0:03:24.24]
08. Светка Стебалистая [0:03:30.72]
09. Папа [0:02:46.25]
10. Хей Ковбой! [0:03:56.33]
11. Любовь Моя [0:05:18.32]
12. До Свидания Мой Щенок [0:03:37.59]
13. У Нас Во Дворе Есть Девочка [0:02:31.06]

Состав

Лог создания рипа

Exact Audio Copy V1.3 from 2. September 2016
EAC extraction logfile from 8. May 2019, 15:00
Внезапный Сыч / Короче Ты Понял
Used drive : MATSHITADVD-RAM UJ8B0AW Adapter: 1 ID: 0
Read mode : SecureUtilize accurate stream : YesDefeat audio cache : YesMake use of C2 pointers : No
Read offset correction : 102Overread into Lead-In and Lead-Out : NoFill up missing offset samples with silence : YesDelete leading and trailing silent blocks : NoNull samples used in CRC calculations : YesUsed interface : Native Win32 interface for Win NT & 2000Gap handling : Appended to previous track
Used output format : User Defined EncoderSelected bitrate : 1024 kBit/sQuality : HighAdd ID3 tag : NoCommand line compressor : C:\Program Files (x86)\Exact Audio Copy\FLAC\FLAC.EXEAdditional command line options : -V -8 -T "Genre=%genre%" -T "Artist=%artist%" -T "Title=%title%" -T "Album=%albumtitle%" -T "Date=%year%" -T "Tracknumber=%tracknr%" -T "Comment=%comment%" %source%
TOC of the extracted CD
Track | Start | Length | Start sector | End sector --------------------------------------------------------- 1 | 0:00.00 | 2:59.61 | 0 | 13485 2 | 2:59.61 | 3:05.24 | 13486 | 27384 3 | 6:05.10 | 3:11.08 | 27385 | 41717 4 | 9:16.18 | 2:18.74 | 41718 | 52141 5 | 11:35.17 | 3:53.45 | 52142 | 69661 6 | 15:28.62 | 3:31.04 | 69662 | 85490 7 | 18:59.66 | 3:24.24 | 85491 | 100814 8 | 22:24.15 | 3:30.72 | 100815 | 116636 9 | 25:55.12 | 2:46.25 | 116637 | 129111 10 | 28:41.37 | 3:56.33 | 129112 | 146844 11 | 32:37.70 | 5:18.32 | 146845 | 170726 12 | 37:56.27 | 3:37.59 | 170727 | 187060 13 | 41:34.11 | 2:31.06 | 187061 | 198391
Track 1
Filename D:\Music\My torrents\Внезапный Сыч\[1990] Короче Ты Понял\01. Внезапный Сыч - ДНК (Девочка Не Кислая).wav
Pre-gap length 0:00:02.00
Peak level 98.0 % Extraction speed 1.1 X Track quality 100.0 % Test CRC 8092816F Copy CRC 8092816F Track not present in AccurateRip database Copy OK
Track 2
Filename D:\Music\My torrents\Внезапный Сыч\[1990] Короче Ты Понял\02. Внезапный Сыч - Много Хорошего!.wav
Peak level 98.0 % Extraction speed 1.3 X Track quality 100.0 % Test CRC F70641D0 Copy CRC F70641D0 Track not present in AccurateRip database Copy OK
Track 3
Filename D:\Music\My torrents\Внезапный Сыч\[1990] Короче Ты Понял\03. Внезапный Сыч - Опух, Что Ли.wav
Peak level 98.0 % Extraction speed 1.3 X Track quality 100.0 % Test CRC C414E90E Copy CRC C414E90E Track not present in AccurateRip database Copy OK
Track 4
Filename D:\Music\My torrents\Внезапный Сыч\[1990] Короче Ты Понял\04. Внезапный Сыч - Нормально!.wav
Peak level 98.0 % Extraction speed 1.3 X Track quality 100.0 % Test CRC 4B2FFC80 Copy CRC 4B2FFC80 Track not present in AccurateRip database Copy OK
Track 5
Filename D:\Music\My torrents\Внезапный Сыч\[1990] Короче Ты Понял\05. Внезапный Сыч - Веселый Подводник.wav
Peak level 98.0 % Extraction speed 1.5 X Track quality 100.0 % Test CRC A6355FD3 Copy CRC A6355FD3 Track not present in AccurateRip database Copy OK
Track 6
Filename D:\Music\My torrents\Внезапный Сыч\[1990] Короче Ты Понял\06. Внезапный Сыч - КТП (Короче Ты Понял!).wav
Peak level 98.0 % Extraction speed 1.6 X Track quality 100.0 % Test CRC EE876627 Copy CRC EE876627 Track not present in AccurateRip database Copy OK
Track 7
Filename D:\Music\My torrents\Внезапный Сыч\[1990] Короче Ты Понял\07. Внезапный Сыч - Мама.wav
Peak level 98.0 % Extraction speed 1.7 X Track quality 100.0 % Test CRC 8FDBF18D Copy CRC 8FDBF18D Track not present in AccurateRip database Copy OK
Track 8
Filename D:\Music\My torrents\Внезапный Сыч\[1990] Короче Ты Понял\08. Внезапный Сыч - Светка Стебалистая.wav
Peak level 98.0 % Extraction speed 1.7 X Track quality 100.0 % Test CRC 67A43FF4 Copy CRC 67A43FF4 Track not present in AccurateRip database Copy OK
Track 9
Filename D:\Music\My torrents\Внезапный Сыч\[1990] Короче Ты Понял\09. Внезапный Сыч - Папа.wav
Peak level 98.0 % Extraction speed 1.5 X Track quality 99.9 % Test CRC 3663D5DD Copy CRC 3663D5DD Track not present in AccurateRip database Copy OK
Track 10
Filename D:\Music\My torrents\Внезапный Сыч\[1990] Короче Ты Понял\10. Внезапный Сыч - Хей Ковбой!.wav
Peak level 98.0 % Extraction speed 1.9 X Track quality 100.0 % Test CRC 32C81B80 Copy CRC 32C81B80 Track not present in AccurateRip database Copy OK
Track 11
Filename D:\Music\My torrents\Внезапный Сыч\[1990] Короче Ты Понял\11. Внезапный Сыч - Любовь Моя.wav
Peak level 98.0 % Extraction speed 2.1 X Track quality 100.0 % Test CRC 72FFA4CC Copy CRC 72FFA4CC Track not present in AccurateRip database Copy OK
Track 12
Filename D:\Music\My torrents\Внезапный Сыч\[1990] Короче Ты Понял\12. Внезапный Сыч - До Свидания Мой Щенок.wav
Peak level 98.0 % Extraction speed 1.8 X Track quality 99.9 % Test CRC FA36E464 Copy CRC FA36E464 Track not present in AccurateRip database Copy OK
Track 13
Filename D:\Music\My torrents\Внезапный Сыч\[1990] Короче Ты Понял\13. Внезапный Сыч - У Нас Во Дворе Есть Девочка.wav
Peak level 98.0 % Extraction speed 1.7 X Track quality 99.9 % Test CRC AC0327EA Copy CRC AC0327EA Track not present in AccurateRip database Copy OK
None of the tracks are present in the AccurateRip database
No errors occurred
End of status report
---- CUETools DB Plugin V2.1.6
[CTDB TOCID: AWU_9h3THQ8ziAB.YOoBeGnLO_g-] disk not present in databaseSubmit result: AWU_9h3THQ8ziAB.YOoBeGnLO_g- has been uploaded
==== Log checksum B74BD38677FA03D466513AD3EBB697F714640FFC5B23637EEB7534739AC7B1CC ====

Содержание индексной карты (.CUE)

REM GENRE "New Wave, Chanson, Indie Rock"REM DATE 1990REM DISCID C40A550DREM COMMENT "ExactAudioCopy v1.3"PERFORMER "Внезапный Сыч"TITLE "Короче Ты Понял"REM COMPOSER "Внезапный Сыч"FILE "01. Внезапный Сыч - ДНК (Девочка Не Кислая).flac" WAVE TRACK 01 AUDIO TITLE "ДНК (Девочка Не Кислая)" PERFORMER "Внезапный Сыч" REM COMPOSER "Внезапный Сыч" INDEX 01 00:00:00FILE "02. Внезапный Сыч - Много Хорошего!.flac" WAVE TRACK 02 AUDIO TITLE "Много Хорошего!" PERFORMER "Внезапный Сыч" REM COMPOSER "Внезапный Сыч" INDEX 01 00:00:00FILE "03. Внезапный Сыч - Опух, Что Ли.flac" WAVE TRACK 03 AUDIO TITLE "Опух, Что Ли?" PERFORMER "Внезапный Сыч" REM COMPOSER "Внезапный Сыч" INDEX 01 00:00:00FILE "04. Внезапный Сыч - Нормально!.flac" WAVE TRACK 04 AUDIO TITLE "Нормально!" PERFORMER "Внезапный Сыч" REM COMPOSER "Внезапный Сыч" INDEX 01 00:00:00FILE "05. Внезапный Сыч - Веселый Подводник.flac" WAVE TRACK 05 AUDIO TITLE "Веселый Подводник" PERFORMER "Внезапный Сыч" REM COMPOSER "Внезапный Сыч" INDEX 01 00:00:00FILE "06. Внезапный Сыч - КТП (Короче Ты Понял!).flac" WAVE TRACK 06 AUDIO TITLE "КТП (Короче Ты Понял!)" PERFORMER "Внезапный Сыч" REM COMPOSER "Внезапный Сыч" INDEX 01 00:00:00FILE "07. Внезапный Сыч - Мама.flac" WAVE TRACK 07 AUDIO TITLE "Мама" PERFORMER "Внезапный Сыч" REM COMPOSER "Внезапный Сыч" INDEX 01 00:00:00FILE "08. Внезапный Сыч - Светка Стебалистая.flac" WAVE TRACK 08 AUDIO TITLE "Светка Стебалистая" PERFORMER "Внезапный Сыч" REM COMPOSER "Внезапный Сыч" INDEX 01 00:00:00FILE "09. Внезапный Сыч - Папа.flac" WAVE TRACK 09 AUDIO TITLE "Папа" PERFORMER "Внезапный Сыч" REM COMPOSER "Внезапный Сыч" INDEX 01 00:00:00FILE "10. Внезапный Сыч - Хей Ковбой!.flac" WAVE TRACK 10 AUDIO TITLE "Хей Ковбой!" PERFORMER "Внезапный Сыч" REM COMPOSER "Внезапный Сыч" INDEX 01 00:00:00FILE "11. Внезапный Сыч - Любовь Моя.flac" WAVE TRACK 11 AUDIO TITLE "Любовь Моя" PERFORMER "Внезапный Сыч" REM COMPOSER "Внезапный Сыч" INDEX 01 00:00:00FILE "12. Внезапный Сыч - До Свидания Мой Щенок.flac" WAVE TRACK 12 AUDIO TITLE "До Свидания Мой Щенок" PERFORMER "Внезапный Сыч" REM COMPOSER "Внезапный Сыч" INDEX 01 00:00:00FILE "13. Внезапный Сыч - У Нас Во Дворе Есть Девочка.flac" WAVE TRACK 13 AUDIO TITLE "У Нас Во Дворе Есть Девочка" PERFORMER "Внезапный Сыч" REM COMPOSER "Внезапный Сыч" INDEX 01 00:00:00

Лог проверки качества

AUDIOCHECKER v2.0 beta (build 457) - by Dester - opdester@freemail.hu~~~~~~~~~~~~~~~~~~~~~~~~~~~~~~~~~~-=== DO NOT EDIT THIS FILE! ===-
Path: ...\[1990] Короче Ты Понял
01 -=- 01. Внезапный Сыч - ДНК (Девочка Не Кислая).flac -=- CDDA (100%)02 -=- 02. Внезапный Сыч - Много Хорошего!.flac -=- CDDA (100%)03 -=- 03. Внезапный Сыч - Опух, Что Ли.flac -=- CDDA (100%)04 -=- 04. Внезапный Сыч - Нормально!.flac -=- CDDA (100%)05 -=- 05. Внезапный Сыч - Веселый Подводник.flac -=- CDDA (100%)06 -=- 06. Внезапный Сыч - КТП (Короче Ты Понял!).flac -=- CDDA (100%)07 -=- 07. Внезапный Сыч - Мама.flac -=- CDDA (100%)08 -=- 08. Внезапный Сыч - Светка Стебалистая.flac -=- CDDA (100%)09 -=- 09. Внезапный Сыч - Папа.flac -=- CDDA (100%)10 -=- 10. Внезапный Сыч - Хей Ковбой!.flac -=- CDDA (100%)11 -=- 11. Внезапный Сыч - Любовь Моя.flac -=- CDDA (100%)12 -=- 12. Внезапный Сыч - До Свидания Мой Щенок.flac -=- CDDA (100%)13 -=- 13. Внезапный Сыч - У Нас Во Дворе Есть Девочка.flac -=- CDDA (100%)
Summary 100,00% CDDA
183054708

Замер динамического диапазона (DR)

foobar2000 1.3.10 / Замер динамического диапазона (DR) 1.1.1
Дата отчёта: 2019-05-08 16:33:07
--------------------------------------------------------------------------------
Анализ: Внезапный Сыч / Короче Ты Понял
--------------------------------------------------------------------------------
DR Пики RMS Продолжительность трека
--------------------------------------------------------------------------------
DR12 -0.18 дБ -15.92 дБ 3:00 01-ДНК (Девочка Не Кислая)
DR13 -0.18 дБ -15.23 дБ 3:05 02-Много Хорошего!
DR13 -0.18 дБ -16.07 дБ 3:11 03-Опух, Что Ли?
DR16 -0.18 дБ -19.11 дБ 2:19 04-Нормально!
DR10 -0.18 дБ -13.58 дБ 3:54 05-Веселый Подводник
DR15 -0.18 дБ -18.44 дБ 3:31 06-КТП (Короче Ты Понял!)
DR14 -0.18 дБ -16.85 дБ 3:24 07-Мама
DR12 -0.18 дБ -15.13 дБ 3:31 08-Светка Стебалистая
DR15 -0.18 дБ -17.14 дБ 2:46 09-Папа
DR14 -0.18 дБ -17.36 дБ 3:56 10-Хей Ковбой!
DR12 -0.18 дБ -15.23 дБ 5:18 11-Любовь Моя
DR8 -0.18 дБ -11.94 дБ 3:38 12-До Свидания Мой Щенок
DR11 -0.18 дБ -13.41 дБ 2:31 13-У Нас Во Дворе Есть Девочка
--------------------------------------------------------------------------------
Количество треков: 13
Реальные значения DR: DR13
Частота: 44100 Гц
Каналов: 2
Разрядность: 16
Битрейт: 613 кбит/с
Кодек: FLAC
================================================================================

Об исполнителе (группе)

http://ru.wikipedia.org/wiki/Внезапный_сыч
torrent "перезалит" 10 мая 2019 года. изменен формат раздачи


[geo-torrent.biz]_t_1510349.torrent
Torrent: Registered ·  [ 2019-05-11 10:48 ] ·  59c6dadd80c2b54beb64d537f18015576336902e

19 KB

Status: checked
Completed: 0 times
Size: 402 MB
Rating: 
(Votes: 0)
Say thanks: 0  Thanks
Похожие темы
[Profile]    [PM]
Display posts from previous:    
Reply to topic

The time now is: Today 16:26

All times are GMT + 7 Hours



You cannot post new topics in this forum
You cannot reply to topics in this forum
You cannot edit your posts in this forum
You cannot delete your posts in this forum
You cannot vote in polls in this forum
You cannot attach files in this forum
You can download files in this forum