(Pop) [CD] VA - 100 Hits Pop Essentials - 2017 - 5 CD, FLAC (tracks+.cue), lossless

Reply to topic
DL-List and Torrent activity [Update пиров]
Size:  2.45 GB   |    Registered:  9 months 16 days   |    Completed:  1 time

Seeder not seen: 3 months 8 days

 
   
 
 
 
Author Message

Кейт

Post 05-May-2019 19:18

[Quote]

100 Hits Pop Essentials - 100 Classic Pop Anthems
(2017)

Жанр: Pop
Носитель: CD
Страна-производитель диска (релиза): EU
Год издания: 2017
Издатель (лейбл): DMGN
Номер по каталогу: 100188
Аудиокодек: FLAC (*.flac)
Тип рипа: tracks+.cue
Продолжительность: 06:04:23
Источник: Naftamusic
Наличие сканов в содержимом раздачи: да (full)
Корректность рипа: В оригинале не было применено сжатие при конвертировании во Флак (FLAC Level 0). Для приведения в соответствие правилам пережато во FLAC Level 5 с сохранением тэгов

CD 1

ТRACKLIST:
01 - Jennifer Lopez - Waiting For Tonight (00:04:07)
02 - Anastacia - I'm Outta Love (00:03:45)
03 - Christina Aguilera - Genie In A Bottle (00:03:38)
04 - Dido - Here With Me (00:04:07)
05 - The Script - The Man Who Can't Be Moved (00:04:02)
06 - The Fray - How To Save A Life (00:04:23)
07 - Toploader - Dancing In The Moonlight (00:03:50)
08 - Simply Red - Sunrise (00:03:19)
09 - Scouting For Girls - This Ain't A Love Song (00:03:31)
10 - The Ting Tings - That's Not My Name (00:03:47)
11 - Wild Cherry - Play That Funky Music (00:03:12)
12 - Patti LaBelle - Lady Marmalade (00:03:57)
13 - The Jacksons - Shake Your Body (Down To The Ground) (00:03:46)
14 - Earth, Wind & Fire - September (00:03:36)
15 - The Emotions - Best Of My Love (00:03:41)
16 - Odyssey - Going Back To My Roots (00:03:26)
17 - Dan Hartman - Instant Replay (00:03:26)
18 - The Hues Corporation - Rock The Boat (00:03:02)
19 - Baccara - Yes Sir, I Can Boogie (00:04:34)
20 - Boney M - Daddy Cool (00:03:28)

Лог создания рипа

Exact Audio Copy V1.3 from 2. September 2016
EAC extraction logfile from 1. May 2019, 16:30
Various Artists / 100 Hits Pop Essentials
Used drive : PLEXTOR PX-891SAF PLUS Adapter: 1 ID: 0
Read mode : SecureUtilize accurate stream : YesDefeat audio cache : YesMake use of C2 pointers : No
Read offset correction : 6Overread into Lead-In and Lead-Out : NoFill up missing offset samples with silence : YesDelete leading and trailing silent blocks : NoNull samples used in CRC calculations : YesUsed interface : Native Win32 interface for Win NT & 2000Gap handling : Appended to previous track
Used output format : User Defined EncoderSelected bitrate : 1024 kBit/sQuality : HighAdd ID3 tag : NoCommand line compressor : C:\Program Files (x86)\Exact Audio Copy\Flac\flac.exeAdditional command line options : -0 -V -T "ARTIST=%artist%" -T "TITLE=%title%" -T "ALBUM=%albumtitle%" -T "DATE=%year%" -T "TRACKNUMBER=%tracknr%" -T "TOTALTRACKS=%numtracks%" -T "GENRE=%genre%" -T "COMMENT=Naftamusic Release!" %source%
TOC of the extracted CD
Track | Start | Length | Start sector | End sector --------------------------------------------------------- 1 | 0:00.00 | 4:07.15 | 0 | 18539 2 | 4:07.15 | 3:44.53 | 18540 | 35392 3 | 7:51.68 | 3:38.31 | 35393 | 51773 4 | 11:30.24 | 4:06.64 | 51774 | 70287 5 | 15:37.13 | 4:01.60 | 70288 | 88422 6 | 19:38.73 | 4:23.01 | 88423 | 108148 7 | 24:01.74 | 3:50.37 | 108149 | 125435 8 | 27:52.36 | 3:18.50 | 125436 | 140335 9 | 31:11.11 | 3:31.16 | 140336 | 156176 10 | 34:42.27 | 3:47.03 | 156177 | 173204 11 | 38:29.30 | 3:12.02 | 173205 | 187606 12 | 41:41.32 | 3:57.34 | 187607 | 205415 13 | 45:38.66 | 3:46.13 | 205416 | 222378 14 | 49:25.04 | 3:36.37 | 222379 | 238615 15 | 53:01.41 | 3:41.09 | 238616 | 255199 16 | 56:42.50 | 3:25.40 | 255200 | 270614 17 | 60:08.15 | 3:25.65 | 270615 | 286054 18 | 63:34.05 | 3:01.59 | 286055 | 299688 19 | 66:35.64 | 4:34.25 | 299689 | 320263 20 | 71:10.14 | 3:27.53 | 320264 | 335841
Track 1
Filename E:\Nafta Releases\VA - 100 Hits Pop Essentials (5 CD 2017)[FLAC]-Naftamusic\CD 1\01 - Jennifer Lopez - Waiting For Tonight.wav
Pre-gap length 0:00:02.00
Peak level 87.7 % Extraction speed 2.9 X Track quality 100.0 % Test CRC 4C188641 Copy CRC 4C188641 Accurately ripped (confidence 2) [740E914A] (AR v2) Copy OK
Track 2
Filename E:\Nafta Releases\VA - 100 Hits Pop Essentials (5 CD 2017)[FLAC]-Naftamusic\CD 1\02 - Anastacia - I'm Outta Love.wav
Pre-gap length 0:00:01.49
Peak level 82.2 % Extraction speed 3.1 X Track quality 100.0 % Test CRC A1C3CCED Copy CRC A1C3CCED Accurately ripped (confidence 2) [5CFD2A9E] (AR v2) Copy OK
Track 3
Filename E:\Nafta Releases\VA - 100 Hits Pop Essentials (5 CD 2017)[FLAC]-Naftamusic\CD 1\03 - Christina Aguilera - Genie In A Bottle.wav
Pre-gap length 0:00:01.23
Peak level 91.2 % Extraction speed 3.3 X Track quality 100.0 % Test CRC A5DFFE7A Copy CRC A5DFFE7A Accurately ripped (confidence 2) [599349CD] (AR v2) Copy OK
Track 4
Filename E:\Nafta Releases\VA - 100 Hits Pop Essentials (5 CD 2017)[FLAC]-Naftamusic\CD 1\04 - Dido - Here With Me.wav
Pre-gap length 0:00:01.00
Peak level 94.4 % Extraction speed 3.6 X Track quality 100.0 % Test CRC D76BE9E4 Copy CRC D76BE9E4 Accurately ripped (confidence 2) [BDB2DE25] (AR v2) Copy OK
Track 5
Filename E:\Nafta Releases\VA - 100 Hits Pop Essentials (5 CD 2017)[FLAC]-Naftamusic\CD 1\05 - The Script - The Man Who Can't Be Moved.wav
Pre-gap length 0:00:01.41
Peak level 74.1 % Extraction speed 3.8 X Track quality 100.0 % Test CRC A041A5F3 Copy CRC A041A5F3 Accurately ripped (confidence 2) [54534923] (AR v2) Copy OK
Track 6
Filename E:\Nafta Releases\VA - 100 Hits Pop Essentials (5 CD 2017)[FLAC]-Naftamusic\CD 1\06 - The Fray - How To Save A Life.wav
Pre-gap length 0:00:01.04
Peak level 71.6 % Extraction speed 4.1 X Track quality 100.0 % Test CRC 9E47E45C Copy CRC 9E47E45C Accurately ripped (confidence 2) [F68B1B0B] (AR v2) Copy OK
Track 7
Filename E:\Nafta Releases\VA - 100 Hits Pop Essentials (5 CD 2017)[FLAC]-Naftamusic\CD 1\07 - Toploader - Dancing In The Moonlight.wav
Pre-gap length 0:00:00.60
Peak level 78.3 % Extraction speed 4.2 X Track quality 100.0 % Test CRC 07DB677A Copy CRC 07DB677A Accurately ripped (confidence 2) [E4DA90F9] (AR v2) Copy OK
Track 8
Filename E:\Nafta Releases\VA - 100 Hits Pop Essentials (5 CD 2017)[FLAC]-Naftamusic\CD 1\08 - Simply Red - Sunrise.wav
Pre-gap length 0:00:01.16
Peak level 73.2 % Extraction speed 4.3 X Track quality 100.0 % Test CRC 010FECBE Copy CRC 010FECBE Accurately ripped (confidence 2) [1AC3BE63] (AR v2) Copy OK
Track 9
Filename E:\Nafta Releases\VA - 100 Hits Pop Essentials (5 CD 2017)[FLAC]-Naftamusic\CD 1\09 - Scouting For Girls - This Ain't A Love Song.wav
Pre-gap length 0:00:01.18
Peak level 69.1 % Extraction speed 4.4 X Track quality 100.0 % Test CRC 578CF94F Copy CRC 578CF94F Accurately ripped (confidence 2) [BEF5B86E] (AR v2) Copy OK
Track 10
Filename E:\Nafta Releases\VA - 100 Hits Pop Essentials (5 CD 2017)[FLAC]-Naftamusic\CD 1\10 - The Ting Tings - That's Not My Name.wav
Pre-gap length 0:00:01.41
Peak level 81.4 % Extraction speed 3.6 X Track quality 99.9 % Test CRC 13F7829B Copy CRC 13F7829B Accurately ripped (confidence 2) [5B11BD76] (AR v2) Copy OK
Track 11
Filename E:\Nafta Releases\VA - 100 Hits Pop Essentials (5 CD 2017)[FLAC]-Naftamusic\CD 1\11 - Wild Cherry - Play That Funky Music.wav
Pre-gap length 0:00:01.43
Peak level 94.4 % Extraction speed 4.7 X Track quality 100.0 % Test CRC 7BF97CC9 Copy CRC 7BF97CC9 Accurately ripped (confidence 2) [AC44418E] (AR v2) Copy OK
Track 12
Filename E:\Nafta Releases\VA - 100 Hits Pop Essentials (5 CD 2017)[FLAC]-Naftamusic\CD 1\12 - Patti LaBelle - Lady Marmalade.wav
Pre-gap length 0:00:01.67
Peak level 88.1 % Extraction speed 5.0 X Track quality 100.0 % Test CRC F9B485E5 Copy CRC F9B485E5 Accurately ripped (confidence 2) [30FFA8C3] (AR v2) Copy OK
Track 13
Filename E:\Nafta Releases\VA - 100 Hits Pop Essentials (5 CD 2017)[FLAC]-Naftamusic\CD 1\13 - The Jacksons - Shake Your Body (Down To The Ground).wav
Pre-gap length 0:00:01.28
Peak level 74.1 % Extraction speed 5.1 X Track quality 100.0 % Test CRC D28675D9 Copy CRC D28675D9 Accurately ripped (confidence 2) [38C004B2] (AR v2) Copy OK
Track 14
Filename E:\Nafta Releases\VA - 100 Hits Pop Essentials (5 CD 2017)[FLAC]-Naftamusic\CD 1\14 - Earth, Wind & Fire - September.wav
Pre-gap length 0:00:01.20
Peak level 94.4 % Extraction speed 5.1 X Track quality 100.0 % Test CRC B25968FB Copy CRC B25968FB Accurately ripped (confidence 2) [963637CC] (AR v2) Copy OK
Track 15
Filename E:\Nafta Releases\VA - 100 Hits Pop Essentials (5 CD 2017)[FLAC]-Naftamusic\CD 1\15 - The Emotions - Best Of My Love.wav
Pre-gap length 0:00:01.29
Peak level 94.4 % Extraction speed 4.1 X Track quality 99.9 % Test CRC 969AC83D Copy CRC 969AC83D Accurately ripped (confidence 2) [5012ABC8] (AR v2) Copy OK
Track 16
Filename E:\Nafta Releases\VA - 100 Hits Pop Essentials (5 CD 2017)[FLAC]-Naftamusic\CD 1\16 - Odyssey - Going Back To My Roots.wav
Pre-gap length 0:00:00.73
Peak level 93.4 % Extraction speed 4.1 X Track quality 99.9 % Test CRC 3E76790A Copy CRC 3E76790A Accurately ripped (confidence 2) [27F4B1F4] (AR v2) Copy OK
Track 17
Filename E:\Nafta Releases\VA - 100 Hits Pop Essentials (5 CD 2017)[FLAC]-Naftamusic\CD 1\17 - Dan Hartman - Instant Replay.wav
Pre-gap length 0:00:00.59
Peak level 94.4 % Extraction speed 5.5 X Track quality 100.0 % Test CRC 80022EC2 Copy CRC 80022EC2 Accurately ripped (confidence 2) [CB41B8B4] (AR v2) Copy OK
Track 18
Filename E:\Nafta Releases\VA - 100 Hits Pop Essentials (5 CD 2017)[FLAC]-Naftamusic\CD 1\18 - The Hues Corporation - Rock The Boat.wav
Pre-gap length 0:00:01.13
Peak level 94.4 % Extraction speed 5.5 X Track quality 100.0 % Test CRC F6EF5E39 Copy CRC F6EF5E39 Accurately ripped (confidence 2) [6E64AADD] (AR v2) Copy OK
Track 19
Filename E:\Nafta Releases\VA - 100 Hits Pop Essentials (5 CD 2017)[FLAC]-Naftamusic\CD 1\19 - Baccara - Yes Sir, I Can Boogie.wav
Pre-gap length 0:00:00.68
Peak level 91.2 % Extraction speed 5.9 X Track quality 100.0 % Test CRC D6F77C9C Copy CRC D6F77C9C Accurately ripped (confidence 2) [8305564D] (AR v2) Copy OK
Track 20
Filename E:\Nafta Releases\VA - 100 Hits Pop Essentials (5 CD 2017)[FLAC]-Naftamusic\CD 1\20 - Boney M - Daddy Cool.wav
Pre-gap length 0:00:01.14
Peak level 94.4 % Extraction speed 5.7 X Track quality 100.0 % Test CRC 797F0343 Copy CRC 797F0343 Accurately ripped (confidence 2) [83234A86] (AR v2) Copy OK
All tracks accurately ripped
No errors occurred
End of status report
==== Log checksum E1107E30CD03D70C84761F10BFB9735BCA377140A56C0EE8F045B27E24AB6469 ====

Содержание индексной карты (.CUE)

REM GENRE PopREM DATE 2017REM DISCID 26117D14REM COMMENT "ExactAudioCopy v1.3"PERFORMER "Various Artists"TITLE "100 Hits Pop Essentials"REM COMPOSER ""FILE "01 - Jennifer Lopez - Waiting For Tonight.wav" WAVE TRACK 01 AUDIO TITLE "Waiting For Tonight" PERFORMER "Jennifer Lopez" REM COMPOSER "" FLAGS DCP INDEX 01 00:00:00 TRACK 02 AUDIO TITLE "I'm Outta Love" PERFORMER "Anastacia" REM COMPOSER "" FLAGS DCP INDEX 00 04:05:41FILE "02 - Anastacia - I'm Outta Love.wav" WAVE INDEX 01 00:00:00 TRACK 03 AUDIO TITLE "Genie In A Bottle" PERFORMER "Christina Aguilera" REM COMPOSER "" FLAGS DCP INDEX 00 03:43:30FILE "03 - Christina Aguilera - Genie In A Bottle.wav" WAVE INDEX 01 00:00:00 TRACK 04 AUDIO TITLE "Here With Me" PERFORMER "Dido" REM COMPOSER "" FLAGS DCP INDEX 00 03:37:31FILE "04 - Dido - Here With Me.wav" WAVE INDEX 01 00:00:00 TRACK 05 AUDIO TITLE "The Man Who Can't Be Moved" PERFORMER "The Script" REM COMPOSER "" FLAGS DCP INDEX 00 04:05:23FILE "05 - The Script - The Man Who Can't Be Moved.wav" WAVE INDEX 01 00:00:00 TRACK 06 AUDIO TITLE "How To Save A Life" PERFORMER "The Fray" REM COMPOSER "" FLAGS DCP INDEX 00 04:00:56FILE "06 - The Fray - How To Save A Life.wav" WAVE INDEX 01 00:00:00 TRACK 07 AUDIO TITLE "Dancing In The Moonlight" PERFORMER "Toploader" REM COMPOSER "" FLAGS DCP INDEX 00 04:22:16FILE "07 - Toploader - Dancing In The Moonlight.wav" WAVE INDEX 01 00:00:00 TRACK 08 AUDIO TITLE "Sunrise" PERFORMER "Simply Red" REM COMPOSER "" FLAGS DCP INDEX 00 03:49:21FILE "08 - Simply Red - Sunrise.wav" WAVE INDEX 01 00:00:00 TRACK 09 AUDIO TITLE "This Ain't A Love Song" PERFORMER "Scouting For Girls" REM COMPOSER "" FLAGS DCP INDEX 00 03:17:32FILE "09 - Scouting For Girls - This Ain't A Love Song.wav" WAVE INDEX 01 00:00:00 TRACK 10 AUDIO TITLE "That's Not My Name" PERFORMER "The Ting Tings" REM COMPOSER "" FLAGS DCP INDEX 00 03:29:50FILE "10 - The Ting Tings - That's Not My Name.wav" WAVE INDEX 01 00:00:00 TRACK 11 AUDIO TITLE "Play That Funky Music" PERFORMER "Wild Cherry" REM COMPOSER "" FLAGS DCP INDEX 00 03:45:35FILE "11 - Wild Cherry - Play That Funky Music.wav" WAVE INDEX 01 00:00:00 TRACK 12 AUDIO TITLE "Lady Marmalade" PERFORMER "Patti LaBelle" REM COMPOSER "" FLAGS DCP INDEX 00 03:10:10FILE "12 - Patti LaBelle - Lady Marmalade.wav" WAVE INDEX 01 00:00:00 TRACK 13 AUDIO TITLE "Shake Your Body (Down To The Ground)" PERFORMER "The Jacksons" REM COMPOSER "" FLAGS DCP INDEX 00 03:56:06FILE "13 - The Jacksons - Shake Your Body (Down To The Ground).wav" WAVE INDEX 01 00:00:00 TRACK 14 AUDIO TITLE "September" PERFORMER "Earth, Wind & Fire" REM COMPOSER "" FLAGS DCP INDEX 00 03:44:68FILE "14 - Earth, Wind & Fire - September.wav" WAVE INDEX 01 00:00:00 TRACK 15 AUDIO TITLE "Best Of My Love" PERFORMER "The Emotions" REM COMPOSER "" FLAGS DCP INDEX 00 03:35:08FILE "15 - The Emotions - Best Of My Love.wav" WAVE INDEX 01 00:00:00 TRACK 16 AUDIO TITLE "Going Back To My Roots" PERFORMER "Odyssey" REM COMPOSER "" FLAGS DCP INDEX 00 03:40:11FILE "16 - Odyssey - Going Back To My Roots.wav" WAVE INDEX 01 00:00:00 TRACK 17 AUDIO TITLE "Instant Replay" PERFORMER "Dan Hartman" REM COMPOSER "" FLAGS DCP INDEX 00 03:24:56FILE "17 - Dan Hartman - Instant Replay.wav" WAVE INDEX 01 00:00:00 TRACK 18 AUDIO TITLE "Rock The Boat" PERFORMER "The Hues Corporation" REM COMPOSER "" FLAGS DCP INDEX 00 03:24:52FILE "18 - The Hues Corporation - Rock The Boat.wav" WAVE INDEX 01 00:00:00 TRACK 19 AUDIO TITLE "Yes Sir, I Can Boogie" PERFORMER "Baccara" REM COMPOSER "" FLAGS DCP INDEX 00 03:00:66FILE "19 - Baccara - Yes Sir, I Can Boogie.wav" WAVE INDEX 01 00:00:00 TRACK 20 AUDIO TITLE "Daddy Cool" PERFORMER "Boney M" REM COMPOSER "" FLAGS DCP INDEX 00 04:33:11FILE "20 - Boney M - Daddy Cool.wav" WAVE INDEX 01 00:00:00

CD 2

ТRACKLIST:
01 - Dolly Parton - 9 To 5 (00:02:45)
02 - KC & The Sunshine Band - Give It Up (00:04:13)
03 - Men At Work - Down Under (00:03:43)
04 - The Bangles - Eternal Flame (00:03:56)
05 - Cindi Lauper - Time After Time (00:04:02)
06 - Boy Meets Girl - Waiting For A Star To Fall (00:04:33)
07 - Paul Young - Come Back And Stay (00:04:25)
08 - Simple Minds - Don't You Forget About Me (Live) (00:08:07)
09 - Terence Trent D'Arby - Sign Your Name (00:04:37)
10 - Phyllis Nelson - Move Closer (00:04:35)
11 - Freda Payne - Band Of Gold (00:02:53)
12 - The Three Degrees - When Will I See You Atain (00:02:37)
13 - Harold Melvin & The Blue Notes - The Love I Lost (00:03:42)
14 - The Isley Brothers - Harvest For The World (00:03:55)
15 - The O'Jays - I Love Music (00:03:35)
16 - The Delfonics - Didn't I (Blow Your Mind This Time) (00:03:23)
17 - Johnny Nash - I Can See Clearly Now (00:02:56)
18 - Nina Simone - Here Comes The Sun (00:03:34)
19 - Erma Franklin - Piece Of My Heart (00:02:37)
20 - Marvin Gaye - Sexual Healing (00:03:59)

Лог создания рипа

Exact Audio Copy V1.3 from 2. September 2016
EAC extraction logfile from 1. May 2019, 17:54
Various Artists / 100 Hits Pop Essentials
Used drive : PLEXTOR PX-891SAF PLUS Adapter: 1 ID: 0
Read mode : SecureUtilize accurate stream : YesDefeat audio cache : YesMake use of C2 pointers : No
Read offset correction : 6Overread into Lead-In and Lead-Out : NoFill up missing offset samples with silence : YesDelete leading and trailing silent blocks : NoNull samples used in CRC calculations : YesUsed interface : Native Win32 interface for Win NT & 2000Gap handling : Appended to previous track
Used output format : User Defined EncoderSelected bitrate : 1024 kBit/sQuality : HighAdd ID3 tag : NoCommand line compressor : C:\Program Files (x86)\Exact Audio Copy\Flac\flac.exeAdditional command line options : -0 -V -T "ARTIST=%artist%" -T "TITLE=%title%" -T "ALBUM=%albumtitle%" -T "DATE=%year%" -T "TRACKNUMBER=%tracknr%" -T "TOTALTRACKS=%numtracks%" -T "GENRE=%genre%" -T "COMMENT=Naftamusic Release!" %source%
TOC of the extracted CD
Track | Start | Length | Start sector | End sector --------------------------------------------------------- 1 | 0:00.00 | 2:45.32 | 0 | 12406 2 | 2:45.32 | 4:12.57 | 12407 | 31363 3 | 6:58.14 | 3:42.56 | 31364 | 48069 4 | 10:40.70 | 3:55.57 | 48070 | 65751 5 | 14:36.52 | 4:01.43 | 65752 | 83869 6 | 18:38.20 | 4:33.02 | 83870 | 104346 7 | 23:11.22 | 4:24.47 | 104347 | 124193 8 | 27:35.69 | 8:07.29 | 124194 | 160747 9 | 35:43.23 | 4:36.66 | 160748 | 181513 10 | 40:20.14 | 4:35.29 | 181514 | 202167 11 | 44:55.43 | 2:53.01 | 202168 | 215143 12 | 47:48.44 | 2:37.24 | 215144 | 226942 13 | 50:25.68 | 3:41.70 | 226943 | 243587 14 | 54:07.63 | 3:54.39 | 243588 | 261176 15 | 58:02.27 | 3:35.04 | 261177 | 277305 16 | 61:37.31 | 3:22.64 | 277306 | 292519 17 | 65:00.20 | 2:56.13 | 292520 | 305732 18 | 67:56.33 | 3:34.29 | 305733 | 321811 19 | 71:30.62 | 2:36.63 | 321812 | 333574 20 | 74:07.50 | 3:58.45 | 333575 | 351469
Track 1
Filename E:\Nafta Releases\VA - 100 Hits Pop Essentials (5 CD 2017)[FLAC]-Naftamusic\CD 2\01 - Dolly Parton - 9 To 5.wav
Pre-gap length 0:00:02.00
Peak level 82.2 % Extraction speed 2.7 X Track quality 100.0 % Test CRC 6D16E68A Copy CRC 6D16E68A Accurately ripped (confidence 2) [DC1D7D52] (AR v2) Copy OK
Track 2
Filename E:\Nafta Releases\VA - 100 Hits Pop Essentials (5 CD 2017)[FLAC]-Naftamusic\CD 2\02 - KC & The Sunshine Band - Give It Up.wav
Pre-gap length 0:00:01.13
Peak level 94.4 % Extraction speed 3.2 X Track quality 100.0 % Test CRC 842AA76A Copy CRC 842AA76A Accurately ripped (confidence 2) [1E833D3C] (AR v2) Copy OK
Track 3
Filename E:\Nafta Releases\VA - 100 Hits Pop Essentials (5 CD 2017)[FLAC]-Naftamusic\CD 2\03 - Men At Work - Down Under.wav
Pre-gap length 0:00:00.71
Peak level 87.1 % Extraction speed 2.7 X Track quality 99.9 % Test CRC BCDFCC17 Copy CRC BCDFCC17 Accurately ripped (confidence 2) [DCB97D61] (AR v2) Copy OK
Track 4
Filename E:\Nafta Releases\VA - 100 Hits Pop Essentials (5 CD 2017)[FLAC]-Naftamusic\CD 2\04 - The Bangles - Eternal Flame.wav
Pre-gap length 0:00:01.27
Peak level 94.4 % Extraction speed 3.6 X Track quality 100.0 % Test CRC A4332CD5 Copy CRC A4332CD5 Accurately ripped (confidence 2) [D6872E91] (AR v2) Copy OK
Track 5
Filename E:\Nafta Releases\VA - 100 Hits Pop Essentials (5 CD 2017)[FLAC]-Naftamusic\CD 2\05 - Cindi Lauper - Time After Time.wav
Pre-gap length 0:00:01.24
Peak level 94.4 % Extraction speed 3.8 X Track quality 100.0 % Test CRC 056FDAEC Copy CRC 056FDAEC Accurately ripped (confidence 2) [8D28A278] (AR v2) Copy OK
Track 6
Filename E:\Nafta Releases\VA - 100 Hits Pop Essentials (5 CD 2017)[FLAC]-Naftamusic\CD 2\06 - Boy Meets Girl - Waiting For A Star To Fall.wav
Pre-gap length 0:00:01.45
Peak level 87.1 % Extraction speed 4.1 X Track quality 100.0 % Test CRC 11FBF0EF Copy CRC 11FBF0EF Accurately ripped (confidence 2) [CB425909] (AR v2) Copy OK
Track 7
Filename E:\Nafta Releases\VA - 100 Hits Pop Essentials (5 CD 2017)[FLAC]-Naftamusic\CD 2\07 - Paul Young - Come Back And Stay.wav
Pre-gap length 0:00:01.42
Peak level 94.4 % Extraction speed 3.5 X Track quality 99.9 % Test CRC 8DFED600 Copy CRC 8DFED600 Accurately ripped (confidence 2) [A7350F4E] (AR v2) Copy OK
Track 8
Filename E:\Nafta Releases\VA - 100 Hits Pop Essentials (5 CD 2017)[FLAC]-Naftamusic\CD 2\08 - Simple Minds - Don't You Forget About Me (Live).wav
Pre-gap length 0:00:01.32
Peak level 94.4 % Extraction speed 4.3 X Track quality 99.9 % Test CRC 0D8FDE58 Copy CRC 0D8FDE58 Accurately ripped (confidence 2) [A4C1654D] (AR v2) Copy OK
Track 9
Filename E:\Nafta Releases\VA - 100 Hits Pop Essentials (5 CD 2017)[FLAC]-Naftamusic\CD 2\09 - Terence Trent D'Arby - Sign Your Name.wav
Pre-gap length 0:00:02.00
Peak level 94.4 % Extraction speed 4.0 X Track quality 99.9 % Test CRC 3B904557 Copy CRC 3B904557 Accurately ripped (confidence 2) [B24F0C9C] (AR v2) Copy OK
Track 10
Filename E:\Nafta Releases\VA - 100 Hits Pop Essentials (5 CD 2017)[FLAC]-Naftamusic\CD 2\10 - Phyllis Nelson - Move Closer.wav
Pre-gap length 0:00:01.65
Peak level 94.4 % Extraction speed 5.1 X Track quality 100.0 % Test CRC EE6DB9FC Copy CRC EE6DB9FC Accurately ripped (confidence 2) [C93DA3F2] (AR v2) Copy OK
Track 11
Filename E:\Nafta Releases\VA - 100 Hits Pop Essentials (5 CD 2017)[FLAC]-Naftamusic\CD 2\11 - Freda Payne - Band Of Gold.wav
Pre-gap length 0:00:01.19
Peak level 85.1 % Extraction speed 4.9 X Track quality 100.0 % Test CRC 3DFA3EE5 Copy CRC 3DFA3EE5 Accurately ripped (confidence 2) [453116C7] (AR v2) Copy OK
Track 12
Filename E:\Nafta Releases\VA - 100 Hits Pop Essentials (5 CD 2017)[FLAC]-Naftamusic\CD 2\12 - The Three Degrees - When Will I See You Atain.wav
Pre-gap length 0:00:00.53
Peak level 94.4 % Extraction speed 4.9 X Track quality 100.0 % Test CRC FE13C695 Copy CRC FE13C695 Accurately ripped (confidence 2) [2D87E15B] (AR v2) Copy OK
Track 13
Filename E:\Nafta Releases\VA - 100 Hits Pop Essentials (5 CD 2017)[FLAC]-Naftamusic\CD 2\13 - Harold Melvin & The Blue Notes - The Love I Lost.wav
Pre-gap length 0:00:00.50
Peak level 89.1 % Extraction speed 5.2 X Track quality 100.0 % Test CRC FA72562C Copy CRC FA72562C Accurately ripped (confidence 2) [DA8600AA] (AR v2) Copy OK
Track 14
Filename E:\Nafta Releases\VA - 100 Hits Pop Essentials (5 CD 2017)[FLAC]-Naftamusic\CD 2\14 - The Isley Brothers - Harvest For The World.wav
Pre-gap length 0:00:01.61
Peak level 91.2 % Extraction speed 5.5 X Track quality 100.0 % Test CRC B7D244FF Copy CRC B7D244FF Accurately ripped (confidence 2) [71E48495] (AR v2) Copy OK
Track 15
Filename E:\Nafta Releases\VA - 100 Hits Pop Essentials (5 CD 2017)[FLAC]-Naftamusic\CD 2\15 - The O'Jays - I Love Music.wav
Pre-gap length 0:00:01.15
Peak level 94.4 % Extraction speed 5.5 X Track quality 100.0 % Test CRC 3AD4D3EA Copy CRC 3AD4D3EA Accurately ripped (confidence 2) [94FE87B9] (AR v2) Copy OK
Track 16
Filename E:\Nafta Releases\VA - 100 Hits Pop Essentials (5 CD 2017)[FLAC]-Naftamusic\CD 2\16 - The Delfonics - Didn't I (Blow Your Mind This Time).wav
Pre-gap length 0:00:01.23
Peak level 94.4 % Extraction speed 4.2 X Track quality 99.9 % Test CRC F049D932 Copy CRC F049D932 Accurately ripped (confidence 2) [308E6C00] (AR v2) Copy OK
Track 17
Filename E:\Nafta Releases\VA - 100 Hits Pop Essentials (5 CD 2017)[FLAC]-Naftamusic\CD 2\17 - Johnny Nash - I Can See Clearly Now.wav
Pre-gap length 0:00:01.03
Peak level 94.4 % Extraction speed 5.6 X Track quality 100.0 % Test CRC AA71E430 Copy CRC AA71E430 Accurately ripped (confidence 2) [E6267879] (AR v2) Copy OK
Track 18
Filename E:\Nafta Releases\VA - 100 Hits Pop Essentials (5 CD 2017)[FLAC]-Naftamusic\CD 2\18 - Nina Simone - Here Comes The Sun.wav
Pre-gap length 0:00:02.07
Peak level 94.4 % Extraction speed 5.8 X Track quality 100.0 % Test CRC 59A67F2B Copy CRC 59A67F2B Accurately ripped (confidence 2) [93A893C6] (AR v2) Copy OK
Track 19
Filename E:\Nafta Releases\VA - 100 Hits Pop Essentials (5 CD 2017)[FLAC]-Naftamusic\CD 2\19 - Erma Franklin - Piece Of My Heart.wav
Pre-gap length 0:00:01.47
Peak level 94.4 % Extraction speed 5.6 X Track quality 100.0 % Test CRC AB046971 Copy CRC AB046971 Accurately ripped (confidence 2) [E507A9DE] (AR v2) Copy OK
Track 20
Filename E:\Nafta Releases\VA - 100 Hits Pop Essentials (5 CD 2017)[FLAC]-Naftamusic\CD 2\20 - Marvin Gaye - Sexual Healing.wav
Pre-gap length 0:00:01.38
Peak level 94.4 % Extraction speed 6.1 X Track quality 100.0 % Test CRC 9DC9D293 Copy CRC 9DC9D293 Accurately ripped (confidence 2) [5186BB49] (AR v2) Copy OK
All tracks accurately ripped
No errors occurred
End of status report
==== Log checksum F7CFED1D6C00397E3D888611A38B3A95DD13F2CF52B6EBEDC3E3EA1B004F5AA5 ====

Содержание индексной карты (.CUE)

REM GENRE PopREM DATE 2017REM DISCID 33124E14REM COMMENT "ExactAudioCopy v1.3"PERFORMER "Various Artists"TITLE "100 Hits Pop Essentials"REM COMPOSER ""FILE "01 - Dolly Parton - 9 To 5.wav" WAVE TRACK 01 AUDIO TITLE "9 To 5" PERFORMER "Dolly Parton" REM COMPOSER "" FLAGS DCP INDEX 01 00:00:00 TRACK 02 AUDIO TITLE "Give It Up" PERFORMER "KC & The Sunshine Band" REM COMPOSER "" FLAGS DCP INDEX 00 02:44:19FILE "02 - KC & The Sunshine Band - Give It Up.wav" WAVE INDEX 01 00:00:00 TRACK 03 AUDIO TITLE "Down Under" PERFORMER "Men At Work" REM COMPOSER "" FLAGS DCP INDEX 00 04:11:61FILE "03 - Men At Work - Down Under.wav" WAVE INDEX 01 00:00:00 TRACK 04 AUDIO TITLE "Eternal Flame" PERFORMER "The Bangles" REM COMPOSER "" FLAGS DCP INDEX 00 03:41:29FILE "04 - The Bangles - Eternal Flame.wav" WAVE INDEX 01 00:00:00 TRACK 05 AUDIO TITLE "Time After Time" PERFORMER "Cindi Lauper" REM COMPOSER "" FLAGS DCP INDEX 00 03:54:33FILE "05 - Cindi Lauper - Time After Time.wav" WAVE INDEX 01 00:00:00 TRACK 06 AUDIO TITLE "Waiting For A Star To Fall" PERFORMER "Boy Meets Girl" REM COMPOSER "" FLAGS DCP INDEX 00 03:59:73FILE "06 - Boy Meets Girl - Waiting For A Star To Fall.wav" WAVE INDEX 01 00:00:00 TRACK 07 AUDIO TITLE "Come Back And Stay" PERFORMER "Paul Young" REM COMPOSER "" FLAGS DCP INDEX 00 04:31:35FILE "07 - Paul Young - Come Back And Stay.wav" WAVE INDEX 01 00:00:00 TRACK 08 AUDIO TITLE "Don't You Forget About Me (Live)" PERFORMER "Simple Minds" REM COMPOSER "" FLAGS DCP INDEX 00 04:23:15FILE "08 - Simple Minds - Don't You Forget About Me (Live).wav" WAVE INDEX 01 00:00:00 TRACK 09 AUDIO TITLE "Sign Your Name" PERFORMER "Terence Trent D'Arby" REM COMPOSER "" FLAGS DCP INDEX 00 08:05:29FILE "09 - Terence Trent D'Arby - Sign Your Name.wav" WAVE INDEX 01 00:00:00 TRACK 10 AUDIO TITLE "Move Closer" PERFORMER "Phyllis Nelson" REM COMPOSER "" FLAGS DCP INDEX 00 04:35:01FILE "10 - Phyllis Nelson - Move Closer.wav" WAVE INDEX 01 00:00:00 TRACK 11 AUDIO TITLE "Band Of Gold" PERFORMER "Freda Payne" REM COMPOSER "" FLAGS DCP INDEX 00 04:34:10FILE "11 - Freda Payne - Band Of Gold.wav" WAVE INDEX 01 00:00:00 TRACK 12 AUDIO TITLE "When Will I See You Atain" PERFORMER "The Three Degrees" REM COMPOSER "" FLAGS DCP INDEX 00 02:52:23FILE "12 - The Three Degrees - When Will I See You Atain.wav" WAVE INDEX 01 00:00:00 TRACK 13 AUDIO TITLE "The Love I Lost" PERFORMER "Harold Melvin & The Blue Notes" REM COMPOSER "" FLAGS DCP INDEX 00 02:36:49FILE "13 - Harold Melvin & The Blue Notes - The Love I Lost.wav" WAVE INDEX 01 00:00:00 TRACK 14 AUDIO TITLE "Harvest For The World" PERFORMER "The Isley Brothers" REM COMPOSER "" FLAGS DCP INDEX 00 03:40:09FILE "14 - The Isley Brothers - Harvest For The World.wav" WAVE INDEX 01 00:00:00 TRACK 15 AUDIO TITLE "I Love Music" PERFORMER "The O'Jays" REM COMPOSER "" FLAGS DCP INDEX 00 03:53:24FILE "15 - The O'Jays - I Love Music.wav" WAVE INDEX 01 00:00:00 TRACK 16 AUDIO TITLE "Didn't I (Blow Your Mind This Time)" PERFORMER "The Delfonics" REM COMPOSER "" FLAGS DCP INDEX 00 03:33:56FILE "16 - The Delfonics - Didn't I (Blow Your Mind This Time).wav" WAVE INDEX 01 00:00:00 TRACK 17 AUDIO TITLE "I Can See Clearly Now" PERFORMER "Johnny Nash" REM COMPOSER "" FLAGS DCP INDEX 00 03:21:61FILE "17 - Johnny Nash - I Can See Clearly Now.wav" WAVE INDEX 01 00:00:00 TRACK 18 AUDIO TITLE "Here Comes The Sun" PERFORMER "Nina Simone" REM COMPOSER "" FLAGS DCP INDEX 00 02:54:06FILE "18 - Nina Simone - Here Comes The Sun.wav" WAVE INDEX 01 00:00:00 TRACK 19 AUDIO TITLE "Piece Of My Heart" PERFORMER "Erma Franklin" REM COMPOSER "" FLAGS DCP INDEX 00 03:32:57FILE "19 - Erma Franklin - Piece Of My Heart.wav" WAVE INDEX 01 00:00:00 TRACK 20 AUDIO TITLE "Sexual Healing" PERFORMER "Marvin Gaye" REM COMPOSER "" FLAGS DCP INDEX 00 02:35:25FILE "20 - Marvin Gaye - Sexual Healing.wav" WAVE INDEX 01 00:00:00

CD 3

ТRACKLIST:
01 - Meat Loaf - You Took The Words Right Out Of My Mouth (Hot Summer Night) (00:04:13)
02 - Toto - Africa (00:04:04)
03 - Belinda Carlisle - Heaven Is A Place On Earth (00:03:54)
04 - Daryl Hall & John Oates - You Make My Dreams (00:03:08)
05 - Status Quo - Fun Fun Fun (Featuring The Beach Boys) (00:04:04)
06 - RUN-DMC - Walk This Way (Featuring Aerosmith) (00:03:39)
07 - Journey - Open Arms (00:03:20)
08 - The Calling - Wherever You Will Go (00:03:29)
09 - Wheatus - Teenage Dirtbag (00:04:04)
10 - Avril Lavigne - Sk8r Boi (00:03:25)
11 - Altered Images - See Those Eyes (00:03:09)
12 - Adam Ant - Goody Two Shoes (00:03:19)
13 - Men Without Hats - The Safety Dance (00:02:44)
14 - Modern Talking - Brother Louie (00:03:41)
15 - The Weather Girls - It's Raining Men (00:03:32)
16 - The Pointer Sisters - Automatic (00:04:01)
17 - Average White Band - Let's Go Round Again (00:03:56)
18 - Bill Withers - Lean On Me (00:04:18)
19 - Billy Ocean - Suddenly (00:03:51)
20 - Gloria Estefan And Miami Sound Machine - Can't Stay Away From You (00:03:57)

Лог создания рипа

Exact Audio Copy V1.3 from 2. September 2016
EAC extraction logfile from 1. May 2019, 18:52
Various Artists / 100 Hits Pop Essentials
Used drive : PLEXTOR PX-891SAF PLUS Adapter: 1 ID: 0
Read mode : SecureUtilize accurate stream : YesDefeat audio cache : YesMake use of C2 pointers : No
Read offset correction : 6Overread into Lead-In and Lead-Out : NoFill up missing offset samples with silence : YesDelete leading and trailing silent blocks : NoNull samples used in CRC calculations : YesUsed interface : Native Win32 interface for Win NT & 2000Gap handling : Appended to previous track
Used output format : User Defined EncoderSelected bitrate : 1024 kBit/sQuality : HighAdd ID3 tag : NoCommand line compressor : C:\Program Files (x86)\Exact Audio Copy\Flac\flac.exeAdditional command line options : -0 -V -T "ARTIST=%artist%" -T "TITLE=%title%" -T "ALBUM=%albumtitle%" -T "DATE=%year%" -T "TRACKNUMBER=%tracknr%" -T "TOTALTRACKS=%numtracks%" -T "GENRE=%genre%" -T "COMMENT=Naftamusic Release!" %source%
TOC of the extracted CD
Track | Start | Length | Start sector | End sector --------------------------------------------------------- 1 | 0:00.00 | 4:13.14 | 0 | 18988 2 | 4:13.14 | 4:04.10 | 18989 | 37298 3 | 8:17.24 | 3:53.39 | 37299 | 54812 4 | 12:10.63 | 3:08.06 | 54813 | 68918 5 | 15:18.69 | 4:04.24 | 68919 | 87242 6 | 19:23.18 | 3:39.32 | 87243 | 103699 7 | 23:02.50 | 3:20.04 | 103700 | 118703 8 | 26:22.54 | 3:29.22 | 118704 | 134400 9 | 29:52.01 | 4:03.47 | 134401 | 152672 10 | 33:55.48 | 3:25.15 | 152673 | 168062 11 | 37:20.63 | 3:08.73 | 168063 | 182235 12 | 40:29.61 | 3:19.23 | 182236 | 197183 13 | 43:49.09 | 2:43.65 | 197184 | 209473 14 | 46:32.74 | 3:41.34 | 209474 | 226082 15 | 50:14.33 | 3:31.61 | 226083 | 241968 16 | 53:46.19 | 4:01.16 | 241969 | 260059 17 | 57:47.35 | 3:55.51 | 260060 | 277735 18 | 61:43.11 | 4:18.21 | 277736 | 297106 19 | 66:01.32 | 3:51.26 | 297107 | 314457 20 | 69:52.58 | 3:56.68 | 314458 | 332225
Track 1
Filename E:\Nafta Releases\VA - 100 Hits Pop Essentials (5 CD 2017)[FLAC]-Naftamusic\CD 3\01 - Meat Loaf - You Took The Words Right Out Of My Mouth (Hot Summer Night).wav
Pre-gap length 0:00:02.00
Peak level 94.4 % Extraction speed 2.9 X Track quality 100.0 % Test CRC 8009021D Copy CRC 8009021D Accurately ripped (confidence 2) [34BF24AA] (AR v2) Copy OK
Track 2
Filename E:\Nafta Releases\VA - 100 Hits Pop Essentials (5 CD 2017)[FLAC]-Naftamusic\CD 3\02 - Toto - Africa.wav
Pre-gap length 0:00:02.03
Peak level 94.4 % Extraction speed 3.2 X Track quality 100.0 % Test CRC E2B21471 Copy CRC E2B21471 Accurately ripped (confidence 2) [0403428B] (AR v2) Copy OK
Track 3
Filename E:\Nafta Releases\VA - 100 Hits Pop Essentials (5 CD 2017)[FLAC]-Naftamusic\CD 3\03 - Belinda Carlisle - Heaven Is A Place On Earth.wav
Pre-gap length 0:00:01.56
Peak level 85.1 % Extraction speed 3.4 X Track quality 100.0 % Test CRC F192CCE9 Copy CRC F192CCE9 Accurately ripped (confidence 2) [8B852CB3] (AR v2) Copy OK
Track 4
Filename E:\Nafta Releases\VA - 100 Hits Pop Essentials (5 CD 2017)[FLAC]-Naftamusic\CD 3\04 - Daryl Hall & John Oates - You Make My Dreams.wav
Pre-gap length 0:00:01.14
Peak level 94.4 % Extraction speed 3.5 X Track quality 100.0 % Test CRC 3BB7E9CA Copy CRC 3BB7E9CA Accurately ripped (confidence 2) [C6F90F58] (AR v2) Copy OK
Track 5
Filename E:\Nafta Releases\VA - 100 Hits Pop Essentials (5 CD 2017)[FLAC]-Naftamusic\CD 3\05 - Status Quo - Fun Fun Fun (Featuring The Beach Boys).wav
Pre-gap length 0:00:01.42
Peak level 94.4 % Extraction speed 3.0 X Track quality 99.9 % Test CRC 6C92F21C Copy CRC 6C92F21C Accurately ripped (confidence 2) [EDD22DE4] (AR v2) Copy OK
Track 6
Filename E:\Nafta Releases\VA - 100 Hits Pop Essentials (5 CD 2017)[FLAC]-Naftamusic\CD 3\06 - RUN-DMC - Walk This Way (Featuring Aerosmith).wav
Pre-gap length 0:00:01.54
Peak level 82.2 % Extraction speed 3.0 X Track quality 99.9 % Test CRC 5672F198 Copy CRC 5672F198 Accurately ripped (confidence 2) [4F55A27B] (AR v2) Copy OK
Track 7
Filename E:\Nafta Releases\VA - 100 Hits Pop Essentials (5 CD 2017)[FLAC]-Naftamusic\CD 3\07 - Journey - Open Arms.wav
Pre-gap length 0:00:01.36
Peak level 85.1 % Extraction speed 4.0 X Track quality 100.0 % Test CRC B1FBED17 Copy CRC B1FBED17 Accurately ripped (confidence 2) [3BE65416] (AR v2) Copy OK
Track 8
Filename E:\Nafta Releases\VA - 100 Hits Pop Essentials (5 CD 2017)[FLAC]-Naftamusic\CD 3\08 - The Calling - Wherever You Will Go.wav
Pre-gap length 0:00:01.53
Peak level 73.9 % Extraction speed 4.2 X Track quality 100.0 % Test CRC 09267C89 Copy CRC 09267C89 Accurately ripped (confidence 2) [2AC92A3B] (AR v2) Copy OK
Track 9
Filename E:\Nafta Releases\VA - 100 Hits Pop Essentials (5 CD 2017)[FLAC]-Naftamusic\CD 3\09 - Wheatus - Teenage Dirtbag.wav
Pre-gap length 0:00:01.30
Peak level 94.4 % Extraction speed 4.5 X Track quality 100.0 % Test CRC 1AFAEECB Copy CRC 1AFAEECB Accurately ripped (confidence 2) [E02293C7] (AR v2) Copy OK
Track 10
Filename E:\Nafta Releases\VA - 100 Hits Pop Essentials (5 CD 2017)[FLAC]-Naftamusic\CD 3\10 - Avril Lavigne - Sk8r Boi.wav
Pre-gap length 0:00:01.55
Peak level 70.8 % Extraction speed 3.5 X Track quality 99.9 % Test CRC 0D667ADF Copy CRC 0D667ADF Accurately ripped (confidence 2) [86A45FB5] (AR v2) Copy OK
Track 11
Filename E:\Nafta Releases\VA - 100 Hits Pop Essentials (5 CD 2017)[FLAC]-Naftamusic\CD 3\11 - Altered Images - See Those Eyes.wav
Pre-gap length 0:00:01.29
Peak level 94.4 % Extraction speed 4.6 X Track quality 100.0 % Test CRC 74FB5E30 Copy CRC 74FB5E30 Accurately ripped (confidence 2) [7516F7ED] (AR v2) Copy OK
Track 12
Filename E:\Nafta Releases\VA - 100 Hits Pop Essentials (5 CD 2017)[FLAC]-Naftamusic\CD 3\12 - Adam Ant - Goody Two Shoes.wav
Pre-gap length 0:00:01.48
Peak level 85.1 % Extraction speed 4.8 X Track quality 100.0 % Test CRC A3D82AB8 Copy CRC A3D82AB8 Accurately ripped (confidence 2) [C95D1D26] (AR v2) Copy OK
Track 13
Filename E:\Nafta Releases\VA - 100 Hits Pop Essentials (5 CD 2017)[FLAC]-Naftamusic\CD 3\13 - Men Without Hats - The Safety Dance.wav
Pre-gap length 0:00:01.48
Peak level 73.3 % Extraction speed 4.7 X Track quality 100.0 % Test CRC B9BB7E0B Copy CRC B9BB7E0B Accurately ripped (confidence 2) [A51B3F7E] (AR v2) Copy OK
Track 14
Filename E:\Nafta Releases\VA - 100 Hits Pop Essentials (5 CD 2017)[FLAC]-Naftamusic\CD 3\14 - Modern Talking - Brother Louie.wav
Pre-gap length 0:00:01.02
Peak level 94.4 % Extraction speed 3.9 X Track quality 99.9 % Test CRC 5AD102DE Copy CRC 5AD102DE Accurately ripped (confidence 2) [8F358176] (AR v2) Copy OK
Track 15
Filename E:\Nafta Releases\VA - 100 Hits Pop Essentials (5 CD 2017)[FLAC]-Naftamusic\CD 3\15 - The Weather Girls - It's Raining Men.wav
Pre-gap length 0:00:00.69
Peak level 75.0 % Extraction speed 4.1 X Track quality 99.9 % Test CRC 108B8B66 Copy CRC 108B8B66 Accurately ripped (confidence 2) [8E856D0B] (AR v2) Copy OK
Track 16
Filename E:\Nafta Releases\VA - 100 Hits Pop Essentials (5 CD 2017)[FLAC]-Naftamusic\CD 3\16 - The Pointer Sisters - Automatic.wav
Pre-gap length 0:00:01.43
Peak level 94.4 % Extraction speed 5.4 X Track quality 100.0 % Test CRC 0588B331 Copy CRC 0588B331 Accurately ripped (confidence 2) [09C61211] (AR v2) Copy OK
Track 17
Filename E:\Nafta Releases\VA - 100 Hits Pop Essentials (5 CD 2017)[FLAC]-Naftamusic\CD 3\17 - Average White Band - Let's Go Round Again.wav
Pre-gap length 0:00:01.30
Peak level 85.1 % Extraction speed 4.3 X Track quality 99.9 % Test CRC 3BC39A61 Copy CRC 3BC39A61 Accurately ripped (confidence 2) [B18452B4] (AR v2) Copy OK
Track 18
Filename E:\Nafta Releases\VA - 100 Hits Pop Essentials (5 CD 2017)[FLAC]-Naftamusic\CD 3\18 - Bill Withers - Lean On Me.wav
Pre-gap length 0:00:01.32
Peak level 94.4 % Extraction speed 4.5 X Track quality 99.9 % Test CRC CBDF66F4 Copy CRC CBDF66F4 Accurately ripped (confidence 2) [EB8C7612] (AR v2) Copy OK
Track 19
Filename E:\Nafta Releases\VA - 100 Hits Pop Essentials (5 CD 2017)[FLAC]-Naftamusic\CD 3\19 - Billy Ocean - Suddenly.wav
Pre-gap length 0:00:01.47
Peak level 94.4 % Extraction speed 5.7 X Track quality 100.0 % Test CRC 32DE37CD Copy CRC 32DE37CD Accurately ripped (confidence 2) [BE5B1910] (AR v2) Copy OK
Track 20
Filename E:\Nafta Releases\VA - 100 Hits Pop Essentials (5 CD 2017)[FLAC]-Naftamusic\CD 3\20 - Gloria Estefan And Miami Sound Machine - Can't Stay Away From You.wav
Pre-gap length 0:00:01.33
Peak level 94.4 % Extraction speed 5.9 X Track quality 100.0 % Test CRC E776CCE6 Copy CRC E776CCE6 Accurately ripped (confidence 2) [A034677C] (AR v2) Copy OK
All tracks accurately ripped
No errors occurred
End of status report
==== Log checksum B09BE45FB49320C233F22225AAC3AE093A789919529A8A5206A7A8B7837DC860 ====

Содержание индексной карты (.CUE)

REM GENRE PopREM DATE 2017REM DISCID 27114D14REM COMMENT "ExactAudioCopy v1.3"PERFORMER "Various Artists"TITLE "100 Hits Pop Essentials"REM COMPOSER ""FILE "01 - Meat Loaf - You Took The Words Right Out Of My Mouth (Hot Summer Night).wav" WAVE TRACK 01 AUDIO TITLE "You Took The Words Right Out Of My Mouth (Hot Summer Night)" PERFORMER "Meat Loaf" REM COMPOSER "" FLAGS DCP INDEX 01 00:00:00 TRACK 02 AUDIO TITLE "Africa" PERFORMER "Toto" REM COMPOSER "" FLAGS DCP INDEX 00 04:11:11FILE "02 - Toto - Africa.wav" WAVE INDEX 01 00:00:00 TRACK 03 AUDIO TITLE "Heaven Is A Place On Earth" PERFORMER "Belinda Carlisle" REM COMPOSER "" FLAGS DCP INDEX 00 04:02:29FILE "03 - Belinda Carlisle - Heaven Is A Place On Earth.wav" WAVE INDEX 01 00:00:00 TRACK 04 AUDIO TITLE "You Make My Dreams" PERFORMER "Daryl Hall & John Oates" REM COMPOSER "" FLAGS DCP INDEX 00 03:52:25FILE "04 - Daryl Hall & John Oates - You Make My Dreams.wav" WAVE INDEX 01 00:00:00 TRACK 05 AUDIO TITLE "Fun Fun Fun (Featuring The Beach Boys)" PERFORMER "Status Quo" REM COMPOSER "" FLAGS DCP INDEX 00 03:06:39FILE "05 - Status Quo - Fun Fun Fun (Featuring The Beach Boys).wav" WAVE INDEX 01 00:00:00 TRACK 06 AUDIO TITLE "Walk This Way (Featuring Aerosmith)" PERFORMER "RUN-DMC" REM COMPOSER "" FLAGS DCP INDEX 00 04:02:45FILE "06 - RUN-DMC - Walk This Way (Featuring Aerosmith).wav" WAVE INDEX 01 00:00:00 TRACK 07 AUDIO TITLE "Open Arms" PERFORMER "Journey" REM COMPOSER "" FLAGS DCP INDEX 00 03:37:71FILE "07 - Journey - Open Arms.wav" WAVE INDEX 01 00:00:00 TRACK 08 AUDIO TITLE "Wherever You Will Go" PERFORMER "The Calling" REM COMPOSER "" FLAGS DCP INDEX 00 03:18:26FILE "08 - The Calling - Wherever You Will Go.wav" WAVE INDEX 01 00:00:00 TRACK 09 AUDIO TITLE "Teenage Dirtbag" PERFORMER "Wheatus" REM COMPOSER "" FLAGS DCP INDEX 00 03:27:67FILE "09 - Wheatus - Teenage Dirtbag.wav" WAVE INDEX 01 00:00:00 TRACK 10 AUDIO TITLE "Sk8r Boi" PERFORMER "Avril Lavigne" REM COMPOSER "" FLAGS DCP INDEX 00 04:01:67FILE "10 - Avril Lavigne - Sk8r Boi.wav" WAVE INDEX 01 00:00:00 TRACK 11 AUDIO TITLE "See Those Eyes" PERFORMER "Altered Images" REM COMPOSER "" FLAGS DCP INDEX 00 03:23:61FILE "11 - Altered Images - See Those Eyes.wav" WAVE INDEX 01 00:00:00 TRACK 12 AUDIO TITLE "Goody Two Shoes" PERFORMER "Adam Ant" REM COMPOSER "" FLAGS DCP INDEX 00 03:07:25FILE "12 - Adam Ant - Goody Two Shoes.wav" WAVE INDEX 01 00:00:00 TRACK 13 AUDIO TITLE "The Safety Dance" PERFORMER "Men Without Hats" REM COMPOSER "" FLAGS DCP INDEX 00 03:17:50FILE "13 - Men Without Hats - The Safety Dance.wav" WAVE INDEX 01 00:00:00 TRACK 14 AUDIO TITLE "Brother Louie" PERFORMER "Modern Talking" REM COMPOSER "" FLAGS DCP INDEX 00 02:42:63FILE "14 - Modern Talking - Brother Louie.wav" WAVE INDEX 01 00:00:00 TRACK 15 AUDIO TITLE "It's Raining Men" PERFORMER "The Weather Girls" REM COMPOSER "" FLAGS DCP INDEX 00 03:40:40FILE "15 - The Weather Girls - It's Raining Men.wav" WAVE INDEX 01 00:00:00 TRACK 16 AUDIO TITLE "Automatic" PERFORMER "The Pointer Sisters" REM COMPOSER "" FLAGS DCP INDEX 00 03:30:18FILE "16 - The Pointer Sisters - Automatic.wav" WAVE INDEX 01 00:00:00 TRACK 17 AUDIO TITLE "Let's Go Round Again" PERFORMER "Average White Band" REM COMPOSER "" FLAGS DCP INDEX 00 03:59:61FILE "17 - Average White Band - Let's Go Round Again.wav" WAVE INDEX 01 00:00:00 TRACK 18 AUDIO TITLE "Lean On Me" PERFORMER "Bill Withers" REM COMPOSER "" FLAGS DCP INDEX 00 03:54:19FILE "18 - Bill Withers - Lean On Me.wav" WAVE INDEX 01 00:00:00 TRACK 19 AUDIO TITLE "Suddenly" PERFORMER "Billy Ocean" REM COMPOSER "" FLAGS DCP INDEX 00 04:16:49FILE "19 - Billy Ocean - Suddenly.wav" WAVE INDEX 01 00:00:00 TRACK 20 AUDIO TITLE "Can't Stay Away From You" PERFORMER "Gloria Estefan And Miami Sound Machine" REM COMPOSER "" FLAGS DCP INDEX 00 03:49:68FILE "20 - Gloria Estefan And Miami Sound Machine - Can't Stay Away From You.wav" WAVE INDEX 01 00:00:00

CD 4

ТRACKLIST:
01 - Backstreet Boys - I Want It That Way (00:03:35)
02 - Westlife - Uptown Girl (00:03:07)
03 - Five - We Will Rock You (00:02:58)
04 - A1 - Take On Me (00:03:33)
05 - PJ & Duncan - Let's Get Ready To Rhumble (00:03:36)
06 - DJ Otzi - Hey Baby (00:03:39)
07 - DJ Sammy - Boys Of Summer (00:04:56)
08 - Strike - U Sure Do (Strike 7 Inch Mix) (00:03:46)
09 - Rozalla - Everybody's Free (To Feel Good) (00:03:26)
10 - Grove Armada - I See You Baby (Feat: Gram'ma Funk Fatboy Slim Radio Edit) (00:03:30)
11 - Jamiroquai - Cosmic Girl (00:03:47)
12 - Lisa Stansfield - Never, Never Gonna Give You Up (00:04:45)
13 - Mary Mary - Shackles (Praise You) (00:03:17)
14 - Outkast - The Way You Move (00:03:53)
15 - R. Kelly - I Believe I Can Fly (00:03:17)
16 - Luther Vandross - Stop To Love (00:04:24)
17 - Alexander O'Neal - Never Knew Love Like This (Feat. Cherrelle) (00:03:30)
18 - Space - Female Of The Species (00:03:20)
19 - Suede - She's In Fashion (00:04:53)
20 - Natalie Imbruglia - Wrong Impression (00:04:15)

Лог создания рипа

Exact Audio Copy V1.3 from 2. September 2016
EAC extraction logfile from 1. May 2019, 20:07
Various Artists / 100 Hits Pop Essentials
Used drive : PLEXTOR PX-891SAF PLUS Adapter: 1 ID: 0
Read mode : SecureUtilize accurate stream : YesDefeat audio cache : YesMake use of C2 pointers : No
Read offset correction : 6Overread into Lead-In and Lead-Out : NoFill up missing offset samples with silence : YesDelete leading and trailing silent blocks : NoNull samples used in CRC calculations : YesUsed interface : Native Win32 interface for Win NT & 2000Gap handling : Appended to previous track
Used output format : User Defined EncoderSelected bitrate : 1024 kBit/sQuality : HighAdd ID3 tag : NoCommand line compressor : C:\Program Files (x86)\Exact Audio Copy\Flac\flac.exeAdditional command line options : -0 -V -T "ARTIST=%artist%" -T "TITLE=%title%" -T "ALBUM=%albumtitle%" -T "DATE=%year%" -T "TRACKNUMBER=%tracknr%" -T "TOTALTRACKS=%numtracks%" -T "GENRE=%genre%" -T "COMMENT=Naftamusic Release!" %source%
TOC of the extracted CD
Track | Start | Length | Start sector | End sector --------------------------------------------------------- 1 | 0:00.00 | 3:34.73 | 0 | 16122 2 | 3:34.73 | 3:06.48 | 16123 | 30120 3 | 6:41.46 | 2:57.49 | 30121 | 43444 4 | 9:39.20 | 3:33.23 | 43445 | 59442 5 | 13:12.43 | 3:36.36 | 59443 | 75678 6 | 16:49.04 | 3:38.39 | 75679 | 92067 7 | 20:27.43 | 4:55.47 | 92068 | 114239 8 | 25:23.15 | 3:46.37 | 114240 | 131226 9 | 29:09.52 | 3:26.15 | 131227 | 146691 10 | 32:35.67 | 3:30.04 | 146692 | 162445 11 | 36:05.71 | 3:46.47 | 162446 | 179442 12 | 39:52.43 | 4:44.46 | 179443 | 200788 13 | 44:37.14 | 3:17.17 | 200789 | 215580 14 | 47:54.31 | 3:53.08 | 215581 | 233063 15 | 51:47.39 | 3:17.11 | 233064 | 247849 16 | 55:04.50 | 4:23.57 | 247850 | 267631 17 | 59:28.32 | 3:29.71 | 267632 | 283377 18 | 62:58.28 | 3:19.72 | 283378 | 298374 19 | 66:18.25 | 4:52.41 | 298375 | 320315 20 | 71:10.66 | 4:15.37 | 320316 | 339477
Track 1
Filename E:\Nafta Releases\VA - 100 Hits Pop Essentials (5 CD 2017)[FLAC]-Naftamusic\CD 4\01 - Backstreet Boys - I Want It That Way.wav
Pre-gap length 0:00:02.00
Peak level 81.2 % Extraction speed 2.8 X Track quality 100.0 % Test CRC 1F3EB1A5 Copy CRC 1F3EB1A5 Accurately ripped (confidence 2) [B88794AF] (AR v2) Copy OK
Track 2
Filename E:\Nafta Releases\VA - 100 Hits Pop Essentials (5 CD 2017)[FLAC]-Naftamusic\CD 4\02 - Westlife - Uptown Girl.wav
Pre-gap length 0:00:01.35
Peak level 74.1 % Extraction speed 3.0 X Track quality 100.0 % Test CRC 886CA9D7 Copy CRC 886CA9D7 Accurately ripped (confidence 2) [EE3F9164] (AR v2) Copy OK
Track 3
Filename E:\Nafta Releases\VA - 100 Hits Pop Essentials (5 CD 2017)[FLAC]-Naftamusic\CD 4\03 - Five - We Will Rock You.wav
Pre-gap length 0:00:01.00
Peak level 79.4 % Extraction speed 3.1 X Track quality 100.0 % Test CRC EA2ABF8E Copy CRC EA2ABF8E Accurately ripped (confidence 2) [B894CE46] (AR v2) Copy OK
Track 4
Filename E:\Nafta Releases\VA - 100 Hits Pop Essentials (5 CD 2017)[FLAC]-Naftamusic\CD 4\04 - A1 - Take On Me.wav
Pre-gap length 0:00:01.26
Peak level 74.1 % Extraction speed 3.4 X Track quality 100.0 % Test CRC 4236CB2F Copy CRC 4236CB2F Accurately ripped (confidence 2) [624F1119] (AR v2) Copy OK
Track 5
Filename E:\Nafta Releases\VA - 100 Hits Pop Essentials (5 CD 2017)[FLAC]-Naftamusic\CD 4\05 - PJ & Duncan - Let's Get Ready To Rhumble.wav
Pre-gap length 0:00:01.29
Peak level 91.7 % Extraction speed 2.8 X Track quality 99.9 % Test CRC 29B09B8A Copy CRC 29B09B8A Accurately ripped (confidence 2) [9E4B9F87] (AR v2) Copy OK
Track 6
Filename E:\Nafta Releases\VA - 100 Hits Pop Essentials (5 CD 2017)[FLAC]-Naftamusic\CD 4\06 - DJ Otzi - Hey Baby.wav
Pre-gap length 0:00:01.18
Peak level 79.4 % Extraction speed 3.8 X Track quality 100.0 % Test CRC D4EEF544 Copy CRC D4EEF544 Accurately ripped (confidence 2) [B7AE658E] (AR v2) Copy OK
Track 7
Filename E:\Nafta Releases\VA - 100 Hits Pop Essentials (5 CD 2017)[FLAC]-Naftamusic\CD 4\07 - DJ Sammy - Boys Of Summer.wav
Pre-gap length 0:00:01.26
Peak level 76.7 % Extraction speed 4.2 X Track quality 100.0 % Test CRC 3E7DE7D2 Copy CRC 3E7DE7D2 Accurately ripped (confidence 2) [E763F046] (AR v2) Copy OK
Track 8
Filename E:\Nafta Releases\VA - 100 Hits Pop Essentials (5 CD 2017)[FLAC]-Naftamusic\CD 4\08 - Strike - U Sure Do (Strike 7 Inch Mix).wav
Pre-gap length 0:00:00.74
Peak level 93.3 % Extraction speed 4.3 X Track quality 100.0 % Test CRC BDAC2562 Copy CRC BDAC2562 Accurately ripped (confidence 2) [19378BFA] (AR v2) Copy OK
Track 9
Filename E:\Nafta Releases\VA - 100 Hits Pop Essentials (5 CD 2017)[FLAC]-Naftamusic\CD 4\09 - Rozalla - Everybody's Free (To Feel Good).wav
Pre-gap length 0:00:01.31
Peak level 83.6 % Extraction speed 3.4 X Track quality 99.9 % Test CRC 1B5DF083 Copy CRC 1B5DF083 Accurately ripped (confidence 2) [510E180E] (AR v2) Copy OK
Track 10
Filename E:\Nafta Releases\VA - 100 Hits Pop Essentials (5 CD 2017)[FLAC]-Naftamusic\CD 4\10 - Grove Armada - I See You Baby (Feat- Gram'ma Funk Fatboy Slim Radio Edit).wav
Pre-gap length 0:00:01.30
Peak level 73.7 % Extraction speed 4.6 X Track quality 100.0 % Test CRC BD059102 Copy CRC BD059102 Accurately ripped (confidence 2) [2B079F89] (AR v2) Copy OK
Track 11
Filename E:\Nafta Releases\VA - 100 Hits Pop Essentials (5 CD 2017)[FLAC]-Naftamusic\CD 4\11 - Jamiroquai - Cosmic Girl.wav
Pre-gap length 0:00:01.30
Peak level 94.4 % Extraction speed 4.8 X Track quality 100.0 % Test CRC 5C6B049E Copy CRC 5C6B049E Accurately ripped (confidence 2) [ABE682C4] (AR v2) Copy OK
Track 12
Filename E:\Nafta Releases\VA - 100 Hits Pop Essentials (5 CD 2017)[FLAC]-Naftamusic\CD 4\12 - Lisa Stansfield - Never, Never Gonna Give You Up.wav
Pre-gap length 0:00:00.52
Peak level 94.4 % Extraction speed 5.1 X Track quality 100.0 % Test CRC 4643DD70 Copy CRC 4643DD70 Accurately ripped (confidence 2) [558D9528] (AR v2) Copy OK
Track 13
Filename E:\Nafta Releases\VA - 100 Hits Pop Essentials (5 CD 2017)[FLAC]-Naftamusic\CD 4\13 - Mary Mary - Shackles (Praise You).wav
Pre-gap length 0:00:01.33
Peak level 94.4 % Extraction speed 3.8 X Track quality 99.9 % Test CRC 2F01C28C Copy CRC 2F01C28C Accurately ripped (confidence 2) [4AACB4AC] (AR v2) Copy OK
Track 14
Filename E:\Nafta Releases\VA - 100 Hits Pop Essentials (5 CD 2017)[FLAC]-Naftamusic\CD 4\14 - Outkast - The Way You Move.wav
Pre-gap length 0:00:01.03
Peak level 78.5 % Extraction speed 5.3 X Track quality 100.0 % Test CRC 2401CCDC Copy CRC 2401CCDC Accurately ripped (confidence 2) [773623D7] (AR v2) Copy OK
Track 15
Filename E:\Nafta Releases\VA - 100 Hits Pop Essentials (5 CD 2017)[FLAC]-Naftamusic\CD 4\15 - R. Kelly - I Believe I Can Fly.wav
Pre-gap length 0:00:01.06
Peak level 94.4 % Extraction speed 5.3 X Track quality 100.0 % Test CRC 2FC71EFC Copy CRC 2FC71EFC Accurately ripped (confidence 2) [816D878E] (AR v2) Copy OK
Track 16
Filename E:\Nafta Releases\VA - 100 Hits Pop Essentials (5 CD 2017)[FLAC]-Naftamusic\CD 4\16 - Luther Vandross - Stop To Love.wav
Pre-gap length 0:00:01.34
Peak level 94.4 % Extraction speed 5.6 X Track quality 100.0 % Test CRC D692BD4A Copy CRC D692BD4A Accurately ripped (confidence 2) [D4C9371A] (AR v2) Copy OK
Track 17
Filename E:\Nafta Releases\VA - 100 Hits Pop Essentials (5 CD 2017)[FLAC]-Naftamusic\CD 4\17 - Alexander O'Neal - Never Knew Love Like This (Feat. Cherrelle).wav
Pre-gap length 0:00:01.03
Peak level 85.1 % Extraction speed 5.5 X Track quality 100.0 % Test CRC 7E079897 Copy CRC 7E079897 Accurately ripped (confidence 2) [F22643FE] (AR v2) Copy OK
Track 18
Filename E:\Nafta Releases\VA - 100 Hits Pop Essentials (5 CD 2017)[FLAC]-Naftamusic\CD 4\18 - Space - Female Of The Species.wav
Pre-gap length 0:00:01.59
Peak level 91.2 % Extraction speed 5.6 X Track quality 100.0 % Test CRC E4A7C0FD Copy CRC E4A7C0FD Accurately ripped (confidence 2) [ACAC6AB0] (AR v2) Copy OK
Track 19
Filename E:\Nafta Releases\VA - 100 Hits Pop Essentials (5 CD 2017)[FLAC]-Naftamusic\CD 4\19 - Suede - She's In Fashion.wav
Pre-gap length 0:00:01.51
Peak level 82.2 % Extraction speed 6.2 X Track quality 100.0 % Test CRC 1C598D40 Copy CRC 1C598D40 Accurately ripped (confidence 2) [8369A7D0] (AR v2) Copy OK
Track 20
Filename E:\Nafta Releases\VA - 100 Hits Pop Essentials (5 CD 2017)[FLAC]-Naftamusic\CD 4\20 - Natalie Imbruglia - Wrong Impression.wav
Pre-gap length 0:00:01.52
Peak level 75.8 % Extraction speed 6.1 X Track quality 100.0 % Test CRC 4C8CE9EE Copy CRC 4C8CE9EE Accurately ripped (confidence 2) [0D3BC5C2] (AR v2) Copy OK
All tracks accurately ripped
No errors occurred
End of status report
==== Log checksum A7A0CDFCE8DBDD7A17CE26C9AC2C0A0F2DA9E3D02796A152220BCDE512882F64 ====

Содержание индексной карты (.CUE)

REM GENRE PopREM DATE 2017REM DISCID 2511AE14REM COMMENT "ExactAudioCopy v1.3"PERFORMER "Various Artists"TITLE "100 Hits Pop Essentials"REM COMPOSER ""FILE "01 - Backstreet Boys - I Want It That Way.wav" WAVE TRACK 01 AUDIO TITLE "I Want It That Way" PERFORMER "Backstreet Boys" REM COMPOSER "" FLAGS DCP INDEX 01 00:00:00 TRACK 02 AUDIO TITLE "Uptown Girl" PERFORMER "Westlife" REM COMPOSER "" FLAGS DCP INDEX 00 03:33:38FILE "02 - Westlife - Uptown Girl.wav" WAVE INDEX 01 00:00:00 TRACK 03 AUDIO TITLE "We Will Rock You" PERFORMER "Five" REM COMPOSER "" FLAGS DCP INDEX 00 03:05:48FILE "03 - Five - We Will Rock You.wav" WAVE INDEX 01 00:00:00 TRACK 04 AUDIO TITLE "Take On Me" PERFORMER "A1" REM COMPOSER "" FLAGS DCP INDEX 00 02:56:23FILE "04 - A1 - Take On Me.wav" WAVE INDEX 01 00:00:00 TRACK 05 AUDIO TITLE "Let's Get Ready To Rhumble" PERFORMER "PJ & Duncan" REM COMPOSER "" FLAGS DCP INDEX 00 03:31:69FILE "05 - PJ & Duncan - Let's Get Ready To Rhumble.wav" WAVE INDEX 01 00:00:00 TRACK 06 AUDIO TITLE "Hey Baby" PERFORMER "DJ Otzi" REM COMPOSER "" FLAGS DCP INDEX 00 03:35:18FILE "06 - DJ Otzi - Hey Baby.wav" WAVE INDEX 01 00:00:00 TRACK 07 AUDIO TITLE "Boys Of Summer" PERFORMER "DJ Sammy" REM COMPOSER "" FLAGS DCP INDEX 00 03:37:13FILE "07 - DJ Sammy - Boys Of Summer.wav" WAVE INDEX 01 00:00:00 TRACK 08 AUDIO TITLE "U Sure Do (Strike 7 Inch Mix)" PERFORMER "Strike" REM COMPOSER "" FLAGS DCP INDEX 00 04:54:48FILE "08 - Strike - U Sure Do (Strike 7 Inch Mix).wav" WAVE INDEX 01 00:00:00 TRACK 09 AUDIO TITLE "Everybody's Free (To Feel Good)" PERFORMER "Rozalla" REM COMPOSER "" FLAGS DCP INDEX 00 03:45:06FILE "09 - Rozalla - Everybody's Free (To Feel Good).wav" WAVE INDEX 01 00:00:00 TRACK 10 AUDIO TITLE "I See You Baby (Feat: Gram'ma Funk Fatboy Slim Radio Edit)" PERFORMER "Grove Armada" REM COMPOSER "" FLAGS DCP INDEX 00 03:24:60FILE "10 - Grove Armada - I See You Baby (Feat- Gram'ma Funk Fatboy Slim Radio Edit).wav" WAVE INDEX 01 00:00:00 TRACK 11 AUDIO TITLE "Cosmic Girl" PERFORMER "Jamiroquai" REM COMPOSER "" FLAGS DCP INDEX 00 03:28:49FILE "11 - Jamiroquai - Cosmic Girl.wav" WAVE INDEX 01 00:00:00 TRACK 12 AUDIO TITLE "Never, Never Gonna Give You Up" PERFORMER "Lisa Stansfield" REM COMPOSER "" FLAGS DCP INDEX 00 03:45:70FILE "12 - Lisa Stansfield - Never, Never Gonna Give You Up.wav" WAVE INDEX 01 00:00:00 TRACK 13 AUDIO TITLE "Shackles (Praise You)" PERFORMER "Mary Mary" REM COMPOSER "" FLAGS DCP INDEX 00 04:43:13FILE "13 - Mary Mary - Shackles (Praise You).wav" WAVE INDEX 01 00:00:00 TRACK 14 AUDIO TITLE "The Way You Move" PERFORMER "Outkast" REM COMPOSER "" FLAGS DCP INDEX 00 03:16:14FILE "14 - Outkast - The Way You Move.wav" WAVE INDEX 01 00:00:00 TRACK 15 AUDIO TITLE "I Believe I Can Fly" PERFORMER "R. Kelly" REM COMPOSER "" FLAGS DCP INDEX 00 03:52:02FILE "15 - R. Kelly - I Believe I Can Fly.wav" WAVE INDEX 01 00:00:00 TRACK 16 AUDIO TITLE "Stop To Love" PERFORMER "Luther Vandross" REM COMPOSER "" FLAGS DCP INDEX 00 03:15:52FILE "16 - Luther Vandross - Stop To Love.wav" WAVE INDEX 01 00:00:00 TRACK 17 AUDIO TITLE "Never Knew Love Like This (Feat. Cherrelle)" PERFORMER "Alexander O'Neal" REM COMPOSER "" FLAGS DCP INDEX 00 04:22:54FILE "17 - Alexander O'Neal - Never Knew Love Like This (Feat. Cherrelle).wav" WAVE INDEX 01 00:00:00 TRACK 18 AUDIO TITLE "Female Of The Species" PERFORMER "Space" REM COMPOSER "" FLAGS DCP INDEX 00 03:28:12FILE "18 - Space - Female Of The Species.wav" WAVE INDEX 01 00:00:00 TRACK 19 AUDIO TITLE "She's In Fashion" PERFORMER "Suede" REM COMPOSER "" FLAGS DCP INDEX 00 03:18:21FILE "19 - Suede - She's In Fashion.wav" WAVE INDEX 01 00:00:00 TRACK 20 AUDIO TITLE "Wrong Impression" PERFORMER "Natalie Imbruglia" REM COMPOSER "" FLAGS DCP INDEX 00 04:50:64FILE "20 - Natalie Imbruglia - Wrong Impression.wav" WAVE INDEX 01 00:00:00

CD 5

ТRACKLIST:
01 - Lou Reed - Perfect Day (00:03:45)
02 - Harry Nilsson - Everybody's Talking (00:02:45)
03 - Barry Manilow - Could It Be Magic (00:04:18)
04 - Terry Jacks - Seasons In The Sun (00:03:31)
05 - Leo Sayer - Moonlighting (00:04:12)
06 - Lulu - The Man Who Sold The World (00:03:50)
07 - Ian Dury & The Blockheads - Hit Me With Your Rhythm Stick (00:03:44)
08 - Showaddywaddy - Under The Moon Of Love (00:03:11)
09 - Edison Lighthouse - Love Grows (Where My Rosemary Goes) (00:02:50)
10 - Chairmen Of The Board - Give Me Just A Little More Time (00:02:37)
11 - The Lovin’ Spoonful - Do You Believe In Magic (00:02:06)
12 - The Byrds - Mr. Tamborine Man (00:02:31)
13 - Johnny Cash - Ring Of Fire (00:02:38)
14 - Lynn Anderson - Rose Garden (00:02:55)
15 - Tammy Wynette - Stand By Your Man (00:02:41)
16 - Dr. Hook & The Medicine Show - Sylvia's Mother (00:03:51)
17 - Andy Williams - Can't Take My Eyes Off You (00:03:14)
18 - Doris Day - Move Over Darling (00:02:39)
19 - Bobby Vinton - Blue Velvet (00:02:49)
20 - Neil Sedaka - Breaking Up Is Hard To Do (00:02:17)

Лог создания рипа

Exact Audio Copy V1.3 from 2. September 2016
EAC extraction logfile from 1. May 2019, 21:10
Various Artists / 100 Hits Pop Essentials
Used drive : PLEXTOR PX-891SAF PLUS Adapter: 1 ID: 0
Read mode : SecureUtilize accurate stream : YesDefeat audio cache : YesMake use of C2 pointers : No
Read offset correction : 6Overread into Lead-In and Lead-Out : NoFill up missing offset samples with silence : YesDelete leading and trailing silent blocks : NoNull samples used in CRC calculations : YesUsed interface : Native Win32 interface for Win NT & 2000Gap handling : Appended to previous track
Used output format : User Defined EncoderSelected bitrate : 1024 kBit/sQuality : HighAdd ID3 tag : NoCommand line compressor : C:\Program Files (x86)\Exact Audio Copy\Flac\flac.exeAdditional command line options : -0 -V -T "ARTIST=%artist%" -T "TITLE=%title%" -T "ALBUM=%albumtitle%" -T "DATE=%year%" -T "TRACKNUMBER=%tracknr%" -T "TOTALTRACKS=%numtracks%" -T "GENRE=%genre%" -T "COMMENT=Naftamusic Release!" %source%
TOC of the extracted CD
Track | Start | Length | Start sector | End sector --------------------------------------------------------- 1 | 0:00.00 | 3:45.25 | 0 | 16899 2 | 3:45.25 | 2:45.36 | 16900 | 29310 3 | 6:30.61 | 4:18.01 | 29311 | 48661 4 | 10:48.62 | 3:30.50 | 48662 | 64461 5 | 14:19.37 | 4:11.47 | 64462 | 83333 6 | 18:31.09 | 3:49.40 | 83334 | 100548 7 | 22:20.49 | 3:43.70 | 100549 | 117343 8 | 26:04.44 | 3:10.58 | 117344 | 131651 9 | 29:15.27 | 2:49.63 | 131652 | 144389 10 | 32:05.15 | 2:37.30 | 144390 | 156194 11 | 34:42.45 | 2:05.67 | 156195 | 165636 12 | 36:48.37 | 2:31.19 | 165637 | 176980 13 | 39:19.56 | 2:37.46 | 176981 | 188801 14 | 41:57.27 | 2:55.17 | 188802 | 201943 15 | 44:52.44 | 2:41.35 | 201944 | 214053 16 | 47:34.04 | 3:50.51 | 214054 | 231354 17 | 51:24.55 | 3:13.43 | 231355 | 245872 18 | 54:38.23 | 2:39.26 | 245873 | 257823 19 | 57:17.49 | 2:48.38 | 257824 | 270461 20 | 60:06.12 | 2:17.17 | 270462 | 280753
Track 1
Filename E:\Nafta Releases\VA - 100 Hits Pop Essentials (5 CD 2017)[FLAC]-Naftamusic\CD 5\01 - Lou Reed - Perfect Day.wav
Pre-gap length 0:00:02.00
Peak level 100.0 % Extraction speed 2.6 X Track quality 100.0 % Test CRC AF6AB369 Copy CRC AF6AB369 Accurately ripped (confidence 2) [8F0D9AC3] (AR v2) Copy OK
Track 2
Filename E:\Nafta Releases\VA - 100 Hits Pop Essentials (5 CD 2017)[FLAC]-Naftamusic\CD 5\02 - Harry Nilsson - Everybody's Talking.wav
Pre-gap length 0:00:01.08
Peak level 94.4 % Extraction speed 2.7 X Track quality 100.0 % Test CRC BE96280C Copy CRC BE96280C Accurately ripped (confidence 2) [D995AE33] (AR v2) Copy OK
Track 3
Filename E:\Nafta Releases\VA - 100 Hits Pop Essentials (5 CD 2017)[FLAC]-Naftamusic\CD 5\03 - Barry Manilow - Could It Be Magic.wav
Pre-gap length 0:00:02.00
Peak level 86.1 % Extraction speed 3.2 X Track quality 100.0 % Test CRC 03572B80 Copy CRC 03572B80 Accurately ripped (confidence 2) [375124B1] (AR v2) Copy OK
Track 4
Filename E:\Nafta Releases\VA - 100 Hits Pop Essentials (5 CD 2017)[FLAC]-Naftamusic\CD 5\04 - Terry Jacks - Seasons In The Sun.wav
Pre-gap length 0:00:01.69
Peak level 94.4 % Extraction speed 3.3 X Track quality 100.0 % Test CRC 443741E5 Copy CRC 443741E5 Accurately ripped (confidence 2) [1F80ADEF] (AR v2) Copy OK
Track 5
Filename E:\Nafta Releases\VA - 100 Hits Pop Essentials (5 CD 2017)[FLAC]-Naftamusic\CD 5\05 - Leo Sayer - Moonlighting.wav
Pre-gap length 0:00:01.23
Peak level 84.1 % Extraction speed 2.9 X Track quality 99.9 % Test CRC F7751213 Copy CRC F7751213 Accurately ripped (confidence 2) [A9528542] (AR v2) Copy OK
Track 6
Filename E:\Nafta Releases\VA - 100 Hits Pop Essentials (5 CD 2017)[FLAC]-Naftamusic\CD 5\06 - Lulu - The Man Who Sold The World.wav
Pre-gap length 0:00:01.33
Peak level 83.1 % Extraction speed 3.8 X Track quality 100.0 % Test CRC E2933E85 Copy CRC E2933E85 Accurately ripped (confidence 2) [422E763D] (AR v2) Copy OK
Track 7
Filename E:\Nafta Releases\VA - 100 Hits Pop Essentials (5 CD 2017)[FLAC]-Naftamusic\CD 5\07 - Ian Dury & The Blockheads - Hit Me With Your Rhythm Stick.wav
Pre-gap length 0:00:01.16
Peak level 86.7 % Extraction speed 4.0 X Track quality 100.0 % Test CRC 4C882107 Copy CRC 4C882107 Accurately ripped (confidence 2) [C79798C7] (AR v2) Copy OK
Track 8
Filename E:\Nafta Releases\VA - 100 Hits Pop Essentials (5 CD 2017)[FLAC]-Naftamusic\CD 5\08 - Showaddywaddy - Under The Moon Of Love.wav
Pre-gap length 0:00:01.39
Peak level 70.8 % Extraction speed 4.0 X Track quality 100.0 % Test CRC 89F101FD Copy CRC 89F101FD Accurately ripped (confidence 2) [46DD5150] (AR v2) Copy OK
Track 9
Filename E:\Nafta Releases\VA - 100 Hits Pop Essentials (5 CD 2017)[FLAC]-Naftamusic\CD 5\09 - Edison Lighthouse - Love Grows (Where My Rosemary Goes).wav
Pre-gap length 0:00:01.08
Peak level 89.1 % Extraction speed 4.0 X Track quality 100.0 % Test CRC 5C3E16B4 Copy CRC 5C3E16B4 Accurately ripped (confidence 2) [F6A4CE18] (AR v2) Copy OK
Track 10
Filename E:\Nafta Releases\VA - 100 Hits Pop Essentials (5 CD 2017)[FLAC]-Naftamusic\CD 5\10 - Chairmen Of The Board - Give Me Just A Little More Time.wav
Pre-gap length 0:00:01.32
Peak level 90.2 % Extraction speed 4.1 X Track quality 100.0 % Test CRC 1A896409 Copy CRC 1A896409 Accurately ripped (confidence 2) [354D51A5] (AR v2) Copy OK
Track 11
Filename E:\Nafta Releases\VA - 100 Hits Pop Essentials (5 CD 2017)[FLAC]-Naftamusic\CD 5\11 - The Lovin’ Spoonful - Do You Believe In Magic.wav
Pre-gap length 0:00:01.61
Peak level 94.4 % Extraction speed 4.0 X Track quality 100.0 % Test CRC 8E9AD079 Copy CRC 8E9AD079 Accurately ripped (confidence 2) [4A79F933] (AR v2) Copy OK
Track 12
Filename E:\Nafta Releases\VA - 100 Hits Pop Essentials (5 CD 2017)[FLAC]-Naftamusic\CD 5\12 - The Byrds - Mr. Tamborine Man.wav
Pre-gap length 0:00:01.14
Peak level 94.4 % Extraction speed 4.3 X Track quality 100.0 % Test CRC 5FFFA716 Copy CRC 5FFFA716 Accurately ripped (confidence 2) [F8298D29] (AR v2) Copy OK
Track 13
Filename E:\Nafta Releases\VA - 100 Hits Pop Essentials (5 CD 2017)[FLAC]-Naftamusic\CD 5\13 - Johnny Cash - Ring Of Fire.wav
Pre-gap length 0:00:01.58
Peak level 94.4 % Extraction speed 4.4 X Track quality 100.0 % Test CRC ECC97F5E Copy CRC ECC97F5E Accurately ripped (confidence 2) [93F610CA] (AR v2) Copy OK
Track 14
Filename E:\Nafta Releases\VA - 100 Hits Pop Essentials (5 CD 2017)[FLAC]-Naftamusic\CD 5\14 - Lynn Anderson - Rose Garden.wav
Pre-gap length 0:00:01.72
Peak level 94.4 % Extraction speed 4.6 X Track quality 100.0 % Test CRC 755546E1 Copy CRC 755546E1 Accurately ripped (confidence 2) [D0FD05D0] (AR v2) Copy OK
Track 15
Filename E:\Nafta Releases\VA - 100 Hits Pop Essentials (5 CD 2017)[FLAC]-Naftamusic\CD 5\15 - Tammy Wynette - Stand By Your Man.wav
Pre-gap length 0:00:01.71
Peak level 94.4 % Extraction speed 4.6 X Track quality 100.0 % Test CRC 71B7708F Copy CRC 71B7708F Accurately ripped (confidence 2) [EC09A14C] (AR v2) Copy OK
Track 16
Filename E:\Nafta Releases\VA - 100 Hits Pop Essentials (5 CD 2017)[FLAC]-Naftamusic\CD 5\16 - Dr. Hook & The Medicine Show - Sylvia's Mother.wav
Pre-gap length 0:00:01.52
Peak level 94.4 % Extraction speed 5.0 X Track quality 100.0 % Test CRC C7B4660B Copy CRC C7B4660B Accurately ripped (confidence 2) [588B40E5] (AR v2) Copy OK
Track 17
Filename E:\Nafta Releases\VA - 100 Hits Pop Essentials (5 CD 2017)[FLAC]-Naftamusic\CD 5\17 - Andy Williams - Can't Take My Eyes Off You.wav
Pre-gap length 0:00:01.28
Peak level 94.4 % Extraction speed 5.0 X Track quality 100.0 % Test CRC 79514E99 Copy CRC 79514E99 Accurately ripped (confidence 2) [38BBC68F] (AR v2) Copy OK
Track 18
Filename E:\Nafta Releases\VA - 100 Hits Pop Essentials (5 CD 2017)[FLAC]-Naftamusic\CD 5\18 - Doris Day - Move Over Darling.wav
Pre-gap length 0:00:00.73
Peak level 94.4 % Extraction speed 3.6 X Track quality 99.9 % Test CRC 033B270C Copy CRC 033B270C Accurately ripped (confidence 2) [4572373F] (AR v2) Copy OK
Track 19
Filename E:\Nafta Releases\VA - 100 Hits Pop Essentials (5 CD 2017)[FLAC]-Naftamusic\CD 5\19 - Bobby Vinton - Blue Velvet.wav
Pre-gap length 0:00:01.36
Peak level 94.4 % Extraction speed 5.1 X Track quality 100.0 % Test CRC F4E86AE2 Copy CRC F4E86AE2 Accurately ripped (confidence 2) [7DC53E10] (AR v2) Copy OK
Track 20
Filename E:\Nafta Releases\VA - 100 Hits Pop Essentials (5 CD 2017)[FLAC]-Naftamusic\CD 5\20 - Neil Sedaka - Breaking Up Is Hard To Do.wav
Pre-gap length 0:00:01.33
Peak level 71.6 % Extraction speed 4.9 X Track quality 100.0 % Test CRC 09EA11A9 Copy CRC 09EA11A9 Accurately ripped (confidence 2) [2F083B6F] (AR v2) Copy OK
All tracks accurately ripped
No errors occurred
End of status report
==== Log checksum 31E8D418A91D93C51E0631C5D986E99E4B33C43E5D4D7F365DA838B2324D5E29 ====

Содержание индексной карты (.CUE)

REM GENRE PopREM DATE 2017REM DISCID 1B0E9F14REM COMMENT "ExactAudioCopy v1.3"PERFORMER "Various Artists"TITLE "100 Hits Pop Essentials"REM COMPOSER ""FILE "01 - Lou Reed - Perfect Day.wav" WAVE TRACK 01 AUDIO TITLE "Perfect Day" PERFORMER "Lou Reed" REM COMPOSER "" FLAGS DCP INDEX 01 00:00:00 TRACK 02 AUDIO TITLE "Everybody's Talking" PERFORMER "Harry Nilsson" REM COMPOSER "" FLAGS DCP INDEX 00 03:44:17FILE "02 - Harry Nilsson - Everybody's Talking.wav" WAVE INDEX 01 00:00:00 TRACK 03 AUDIO TITLE "Could It Be Magic" PERFORMER "Barry Manilow" REM COMPOSER "" FLAGS DCP INDEX 00 02:43:36FILE "03 - Barry Manilow - Could It Be Magic.wav" WAVE INDEX 01 00:00:00 TRACK 04 AUDIO TITLE "Seasons In The Sun" PERFORMER "Terry Jacks" REM COMPOSER "" FLAGS DCP INDEX 00 04:16:07FILE "04 - Terry Jacks - Seasons In The Sun.wav" WAVE INDEX 01 00:00:00 TRACK 05 AUDIO TITLE "Moonlighting" PERFORMER "Leo Sayer" REM COMPOSER "" FLAGS DCP INDEX 00 03:29:27FILE "05 - Leo Sayer - Moonlighting.wav" WAVE INDEX 01 00:00:00 TRACK 06 AUDIO TITLE "The Man Who Sold The World" PERFORMER "Lulu" REM COMPOSER "" FLAGS DCP INDEX 00 04:10:14FILE "06 - Lulu - The Man Who Sold The World.wav" WAVE INDEX 01 00:00:00 TRACK 07 AUDIO TITLE "Hit Me With Your Rhythm Stick" PERFORMER "Ian Dury & The Blockheads" REM COMPOSER "" FLAGS DCP INDEX 00 03:48:24FILE "07 - Ian Dury & The Blockheads - Hit Me With Your Rhythm Stick.wav" WAVE INDEX 01 00:00:00 TRACK 08 AUDIO TITLE "Under The Moon Of Love" PERFORMER "Showaddywaddy" REM COMPOSER "" FLAGS DCP INDEX 00 03:42:31FILE "08 - Showaddywaddy - Under The Moon Of Love.wav" WAVE INDEX 01 00:00:00 TRACK 09 AUDIO TITLE "Love Grows (Where My Rosemary Goes)" PERFORMER "Edison Lighthouse" REM COMPOSER "" FLAGS DCP INDEX 00 03:09:50FILE "09 - Edison Lighthouse - Love Grows (Where My Rosemary Goes).wav" WAVE INDEX 01 00:00:00 TRACK 10 AUDIO TITLE "Give Me Just A Little More Time" PERFORMER "Chairmen Of The Board" REM COMPOSER "" FLAGS DCP INDEX 00 02:48:31FILE "10 - Chairmen Of The Board - Give Me Just A Little More Time.wav" WAVE INDEX 01 00:00:00 TRACK 11 AUDIO TITLE "Do You Believe In Magic" PERFORMER "The Lovin’ Spoonful" REM COMPOSER "" FLAGS DCP INDEX 00 02:35:44FILE "11 - The Lovin’ Spoonful - Do You Believe In Magic.wav" WAVE INDEX 01 00:00:00 TRACK 12 AUDIO TITLE "Mr. Tamborine Man" PERFORMER "The Byrds" REM COMPOSER "" FLAGS DCP INDEX 00 02:04:53FILE "12 - The Byrds - Mr. Tamborine Man.wav" WAVE INDEX 01 00:00:00 TRACK 13 AUDIO TITLE "Ring Of Fire" PERFORMER "Johnny Cash" REM COMPOSER "" FLAGS DCP INDEX 00 02:29:36FILE "13 - Johnny Cash - Ring Of Fire.wav" WAVE INDEX 01 00:00:00 TRACK 14 AUDIO TITLE "Rose Garden" PERFORMER "Lynn Anderson" REM COMPOSER "" FLAGS DCP INDEX 00 02:35:49FILE "14 - Lynn Anderson - Rose Garden.wav" WAVE INDEX 01 00:00:00 TRACK 15 AUDIO TITLE "Stand By Your Man" PERFORMER "Tammy Wynette" REM COMPOSER "" FLAGS DCP INDEX 00 02:53:21FILE "15 - Tammy Wynette - Stand By Your Man.wav" WAVE INDEX 01 00:00:00 TRACK 16 AUDIO TITLE "Sylvia's Mother" PERFORMER "Dr. Hook & The Medicine Show" REM COMPOSER "" FLAGS DCP INDEX 00 02:39:58FILE "16 - Dr. Hook & The Medicine Show - Sylvia's Mother.wav" WAVE INDEX 01 00:00:00 TRACK 17 AUDIO TITLE "Can't Take My Eyes Off You" PERFORMER "Andy Williams" REM COMPOSER "" FLAGS DCP INDEX 00 03:49:23FILE "17 - Andy Williams - Can't Take My Eyes Off You.wav" WAVE INDEX 01 00:00:00 TRACK 18 AUDIO TITLE "Move Over Darling" PERFORMER "Doris Day" REM COMPOSER "" FLAGS DCP INDEX 00 03:12:45FILE "18 - Doris Day - Move Over Darling.wav" WAVE INDEX 01 00:00:00 TRACK 19 AUDIO TITLE "Blue Velvet" PERFORMER "Bobby Vinton" REM COMPOSER "" FLAGS DCP INDEX 00 02:37:65FILE "19 - Bobby Vinton - Blue Velvet.wav" WAVE INDEX 01 00:00:00 TRACK 20 AUDIO TITLE "Breaking Up Is Hard To Do" PERFORMER "Neil Sedaka" REM COMPOSER "" FLAGS DCP INDEX 00 02:47:05FILE "20 - Neil Sedaka - Breaking Up Is Hard To Do.wav" WAVE INDEX 01 00:00:00


[geo-torrent.biz]_t_5726601.torrent
Torrent: Registered ·  [ 2019-05-05 19:11 ] ·  debe7ec6b8f20c22661cdbf5b655adeb2916f671

23 KB

Status: checked
Completed: 1 times
Size: 2.45 GB
Rating: 
(Votes: 0)
Say thanks: 0  Thanks
Похожие темы
[Profile]    [PM]
Display posts from previous:    
Reply to topic

The time now is: Today 19:21

All times are GMT + 7 Hours



You cannot post new topics in this forum
You cannot reply to topics in this forum
You cannot edit your posts in this forum
You cannot delete your posts in this forum
You cannot vote in polls in this forum
You cannot attach files in this forum
You can download files in this forum