(Acoustic, Chanson, Neofolk, Vocal) [CD] Гавриил Лубнин - Дискография 3 CD - 2004-2007, FLAC (tracks+.cue), lossless

Reply to topic
DL-List and Torrent activity [Update пиров]
Size:  1.68 GB   |    Registered:  5 months 12 days   |    Completed:  0 times

Seeder not seen: Never

 
   
 
 
 
Author Message

Кейт

Post 05-May-2019 19:13

[Quote]

torrent "перезалит" 27 апреля 2019 года. Изменен формат раздачи.Гавриил Вадимович ЛубнинДискография с 2004 по 2007 год

[2004] Вода (запись 1995-1996)

Гавриил Лубнин / Вода (запись 1995-1996)
Жанр: Acoustic, Vocal, Chanson, Neofolk
Носитель: CD
Страна-производитель диска (релиза): Россия
Год издания: 2004
Издатель (лейбл): Manchester Files
Номер по каталогу: CDMAN 230-04
Страна исполнителя (группы): Россия
Аудиокодек: FLAC (*.flac)
Тип рипа: tracks+.cue
Продолжительность: 39:28.507 (104 451 144 samples)
Источник: собственный рип
Наличие сканов в содержимом раздачи: да
Треклист:
01. Вода [0:03:19.15]
02. Пока Ты Спала... [0:03:56.62]
03. Не Уходи... [0:02:09.47]
04. Улитка [0:04:50.33]
05. На Взлет... [0:04:15.52]
06. Ждет... [0:03:49.32]
07. Предсмертный Опыт [0:04:23.22]
08. Танго [0:03:03.42]
09. Расскажи... [0:04:48.44]
10. Рано Проснусь [0:04:51.64]

Лог создания рипа

Exact Audio Copy V1.3 from 2. September 2016
EAC extraction logfile from 25. April 2019, 13:11
Гавриил Лубнин / Вода
Used drive : MATSHITADVD-RAM UJ8B0AW Adapter: 1 ID: 0
Read mode : SecureUtilize accurate stream : YesDefeat audio cache : YesMake use of C2 pointers : No
Read offset correction : 102Overread into Lead-In and Lead-Out : NoFill up missing offset samples with silence : YesDelete leading and trailing silent blocks : NoNull samples used in CRC calculations : YesUsed interface : Native Win32 interface for Win NT & 2000Gap handling : Appended to previous track
Used output format : User Defined EncoderSelected bitrate : 1024 kBit/sQuality : HighAdd ID3 tag : NoCommand line compressor : C:\Program Files (x86)\Exact Audio Copy\FLAC\FLAC.EXEAdditional command line options : -V -8 -T "Genre=%genre%" -T "Artist=%artist%" -T "Title=%title%" -T "Album=%albumtitle%" -T "Date=%year%" -T "Tracknumber=%tracknr%" -T "Comment=%comment%" %source%
TOC of the extracted CD
Track | Start | Length | Start sector | End sector --------------------------------------------------------- 1 | 0:00.00 | 3:19.15 | 0 | 14939 2 | 3:19.15 | 3:56.62 | 14940 | 32701 3 | 7:16.02 | 2:09.47 | 32702 | 42423 4 | 9:25.49 | 4:50.33 | 42424 | 64206 5 | 14:16.07 | 4:15.52 | 64207 | 83383 6 | 18:31.59 | 3:49.32 | 83384 | 100590 7 | 22:21.16 | 4:23.22 | 100591 | 120337 8 | 26:44.38 | 3:03.42 | 120338 | 134104 9 | 29:48.05 | 4:48.44 | 134105 | 155748 10 | 34:36.49 | 4:51.64 | 155749 | 177637 11 | 42:00.38 | 0:08.00 | 189038 | 189637
Track 1
Filename D:\Music\My torrents\Лубнин, Гавриил Вадимович\[2004] Вода (записи 1995-1996)\01. Гавриил Лубнин - Вода.wav
Pre-gap length 0:00:02.00
Peak level 99.9 % Extraction speed 1.0 X Track quality 99.9 % Test CRC CDDF36B9 Copy CRC CDDF36B9 Track not present in AccurateRip database Copy OK
Track 2
Filename D:\Music\My torrents\Лубнин, Гавриил Вадимович\[2004] Вода (записи 1995-1996)\02. Гавриил Лубнин - Пока Ты Спала....wav
Peak level 99.9 % Extraction speed 1.3 X Track quality 100.0 % Test CRC A18F66A3 Copy CRC A18F66A3 Track not present in AccurateRip database Copy OK
Track 3
Filename D:\Music\My torrents\Лубнин, Гавриил Вадимович\[2004] Вода (записи 1995-1996)\03. Гавриил Лубнин - Не Уходи....wav
Peak level 99.9 % Extraction speed 1.2 X Track quality 100.0 % Test CRC 23F5EC19 Copy CRC 23F5EC19 Track not present in AccurateRip database Copy OK
Track 4
Filename D:\Music\My torrents\Лубнин, Гавриил Вадимович\[2004] Вода (записи 1995-1996)\04. Гавриил Лубнин - Улитка.wav
Peak level 100.0 % Extraction speed 1.5 X Track quality 100.0 % Test CRC C3A2FAFD Copy CRC C3A2FAFD Track not present in AccurateRip database Copy OK
Track 5
Filename D:\Music\My torrents\Лубнин, Гавриил Вадимович\[2004] Вода (записи 1995-1996)\05. Гавриил Лубнин - На Взлет....wav
Peak level 99.9 % Extraction speed 1.6 X Track quality 100.0 % Test CRC 020EC37B Copy CRC 020EC37B Track not present in AccurateRip database Copy OK
Track 6
Filename D:\Music\My torrents\Лубнин, Гавриил Вадимович\[2004] Вода (записи 1995-1996)\06. Гавриил Лубнин - Ждет....wav
Peak level 99.9 % Extraction speed 1.5 X Track quality 99.9 % Test CRC D3DECC21 Copy CRC D3DECC21 Track not present in AccurateRip database Copy OK
Track 7
Filename D:\Music\My torrents\Лубнин, Гавриил Вадимович\[2004] Вода (записи 1995-1996)\07. Гавриил Лубнин - Предсмертный Опыт.wav
Peak level 99.9 % Extraction speed 1.6 X Track quality 99.9 % Test CRC F3FB6C3C Copy CRC F3FB6C3C Track not present in AccurateRip database Copy OK
Track 8
Filename D:\Music\My torrents\Лубнин, Гавриил Вадимович\[2004] Вода (записи 1995-1996)\08. Гавриил Лубнин - Танго.wav
Peak level 99.9 % Extraction speed 1.5 X Track quality 99.9 % Test CRC 3C51AC6D Copy CRC 3C51AC6D Track not present in AccurateRip database Copy OK
Track 9
Filename D:\Music\My torrents\Лубнин, Гавриил Вадимович\[2004] Вода (записи 1995-1996)\09. Гавриил Лубнин - Расскажи....wav
Peak level 99.9 % Extraction speed 2.0 X Track quality 100.0 % Test CRC D1AD3B6E Copy CRC D1AD3B6E Track not present in AccurateRip database Copy OK
Track 10
Filename D:\Music\My torrents\Лубнин, Гавриил Вадимович\[2004] Вода (записи 1995-1996)\10. Гавриил Лубнин - Рано Проснусь.wav
Peak level 99.9 % Extraction speed 1.9 X Track quality 99.9 % Test CRC 3FD6EFF4 Copy CRC 3FD6EFF4 Track not present in AccurateRip database Copy OK
None of the tracks are present in the AccurateRip database
No errors occurred
End of status report
---- CUETools DB Plugin V2.1.6
[CTDB TOCID: 5F_jbHwKSZrK_aF0YTozW9Ai2YE-] disk not present in databaseSubmit result: 5F_jbHwKSZrK_aF0YTozW9Ai2YE- has been uploaded
==== Log checksum 873BD0262B4054420BCF89348022820B470E64CB6641A3734BA9013380952521 ====

Содержание индексной карты (.CUE)

REM GENRE "Acoustic, Vocal, Chanson, Neofolk"REM DATE 2004REM DISCID 8609E00BREM COMMENT "ExactAudioCopy v1.3"PERFORMER "Гавриил Лубнин"TITLE "Вода"REM COMPOSER "Лубнин, Гавриил Вадимович"FILE "01. Гавриил Лубнин - Вода.flac" WAVE TRACK 01 AUDIO TITLE "Вода" PERFORMER "Гавриил Лубнин" REM COMPOSER "Лубнин, Гавриил Вадимович" FLAGS DCP INDEX 01 00:00:00FILE "02. Гавриил Лубнин - Пока Ты Спала....flac" WAVE TRACK 02 AUDIO TITLE "Пока Ты Спала..." PERFORMER "Гавриил Лубнин" REM COMPOSER "Лубнин, Гавриил Вадимович" FLAGS DCP INDEX 01 00:00:00FILE "03. Гавриил Лубнин - Не Уходи....flac" WAVE TRACK 03 AUDIO TITLE "Не Уходи..." PERFORMER "Гавриил Лубнин" REM COMPOSER "Лубнин, Гавриил Вадимович" FLAGS DCP INDEX 01 00:00:00FILE "04. Гавриил Лубнин - Улитка.flac" WAVE TRACK 04 AUDIO TITLE "Улитка" PERFORMER "Гавриил Лубнин" REM COMPOSER "Лубнин, Гавриил Вадимович" FLAGS DCP INDEX 01 00:00:00FILE "05. Гавриил Лубнин - На Взлет....flac" WAVE TRACK 05 AUDIO TITLE "На Взлет..." PERFORMER "Гавриил Лубнин" REM COMPOSER "Лубнин, Гавриил Вадимович" FLAGS DCP INDEX 01 00:00:00FILE "06. Гавриил Лубнин - Ждет....flac" WAVE TRACK 06 AUDIO TITLE "Ждет..." PERFORMER "Гавриил Лубнин" REM COMPOSER "Лубнин, Гавриил Вадимович" FLAGS DCP INDEX 01 00:00:00FILE "07. Гавриил Лубнин - Предсмертный Опыт.flac" WAVE TRACK 07 AUDIO TITLE "Предсмертный Опыт" PERFORMER "Гавриил Лубнин" REM COMPOSER "Лубнин, Гавриил Вадимович" FLAGS DCP INDEX 01 00:00:00FILE "08. Гавриил Лубнин - Танго.flac" WAVE TRACK 08 AUDIO TITLE "Танго" PERFORMER "Гавриил Лубнин" REM COMPOSER "Лубнин, Гавриил Вадимович" FLAGS DCP INDEX 01 00:00:00FILE "09. Гавриил Лубнин - Расскажи....flac" WAVE TRACK 09 AUDIO TITLE "Расскажи..." PERFORMER "Гавриил Лубнин" REM COMPOSER "Лубнин, Гавриил Вадимович" FLAGS DCP INDEX 01 00:00:00FILE "10. Гавриил Лубнин - Рано Проснусь.flac" WAVE TRACK 10 AUDIO TITLE "Рано Проснусь" PERFORMER "Гавриил Лубнин" REM COMPOSER "Лубнин, Гавриил Вадимович" FLAGS DCP INDEX 01 00:00:00

Замер динамического диапазона (DR)

foobar2000 1.3.10 / Замер динамического диапазона (DR) 1.1.1Дата отчёта: 2019-04-25 13:13:09
--------------------------------------------------------------------------------Анализ: Гавриил Лубнин / Вода--------------------------------------------------------------------------------
DR Пики RMS Продолжительность трека--------------------------------------------------------------------------------DR6 0.00 дБ -8.34 дБ 3:19 01-ВодаDR7 0.00 дБ -9.01 дБ 3:57 02-Пока Ты Спала...DR7 0.00 дБ -9.37 дБ 2:10 03-Не Уходи...DR7 0.00 дБ -10.55 дБ 4:50 04-УлиткаDR8 0.00 дБ -10.15 дБ 4:16 05-На Взлет...DR6 0.00 дБ -9.03 дБ 3:49 06-Ждет...DR7 0.00 дБ -9.06 дБ 4:23 07-Предсмертный ОпытDR8 0.00 дБ -10.50 дБ 3:04 08-ТангоDR7 0.00 дБ -10.06 дБ 4:49 09-Расскажи...DR7 0.00 дБ -10.84 дБ 4:52 10-Рано Проснусь--------------------------------------------------------------------------------
Количество треков: 10Реальные значения DR: DR7
Частота: 44100 ГцКаналов: 2Разрядность: 16Битрейт: 869 кбит/сКодек: FLAC================================================================================

[2004] Пьянство Бритва (запись 1998)

Гавриил Лубнин / Пьянство Бритва (запись 1998)
Жанр: Acoustic, Chanson, Neofolk, Vocal
Носитель: CD
Страна-производитель диска (релиза): Россия
Год издания: 2004
Издатель (лейбл): Manchester Files
Номер по каталогу: CDMAN 229-04
Страна исполнителя (группы): Россия
Аудиокодек: FLAC (*.flac)
Тип рипа: tracks+.cue
Продолжительность: 47:49.653 (126 551 712 samples)
Источник: собственный рип
Наличие сканов в содержимом раздачи: да
Треклист:
01. Нежный Пожарный [0:03:57.17]
02. В Зоопарке [0:03:35.68]
03. Волки Спрятались [0:02:08.59]
04. Иди Сюда (Сл. Отца) [0:03:42.54]
05. Кукушка [0:02:55.41]
06. Боюсь Зимы [0:03:46.14]
07. Запоище (Ю.К.) [0:05:40.15]
08. Мумия [0:02:48.16]
09. Вода [0:03:14.63]
10. Валерик [0:02:42.60]
11. Цаката [0:02:45.54]
12. Нина С Москвы [0:02:34.62]
13. Жил Был Итальянец [0:03:18.51]
14. Лубнин & Гаркуша / Лесная (Лубнин & Гаркуша) [0:04:38.00]

Лог создания рипа

Exact Audio Copy V1.3 from 2. September 2016
EAC extraction logfile from 25. April 2019, 13:51
Гавриил Лубнин / Пьянство Бритва
Used drive : MATSHITADVD-RAM UJ8B0AW Adapter: 1 ID: 0
Read mode : SecureUtilize accurate stream : YesDefeat audio cache : YesMake use of C2 pointers : No
Read offset correction : 102Overread into Lead-In and Lead-Out : NoFill up missing offset samples with silence : YesDelete leading and trailing silent blocks : NoNull samples used in CRC calculations : YesUsed interface : Native Win32 interface for Win NT & 2000Gap handling : Appended to previous track
Used output format : User Defined EncoderSelected bitrate : 1024 kBit/sQuality : HighAdd ID3 tag : NoCommand line compressor : C:\Program Files (x86)\Exact Audio Copy\FLAC\FLAC.EXEAdditional command line options : -V -8 -T "Genre=%genre%" -T "Artist=%artist%" -T "Title=%title%" -T "Album=%albumtitle%" -T "Date=%year%" -T "Tracknumber=%tracknr%" -T "Comment=%comment%" %source%
TOC of the extracted CD
Track | Start | Length | Start sector | End sector --------------------------------------------------------- 1 | 0:00.00 | 3:57.17 | 0 | 17791 2 | 3:57.17 | 3:35.68 | 17792 | 33984 3 | 7:33.10 | 2:08.59 | 33985 | 43643 4 | 9:41.69 | 3:42.54 | 43644 | 60347 5 | 13:24.48 | 2:55.41 | 60348 | 73513 6 | 16:20.14 | 3:46.14 | 73514 | 90477 7 | 20:06.28 | 5:40.15 | 90478 | 115992 8 | 25:46.43 | 2:48.16 | 115993 | 128608 9 | 28:34.59 | 3:14.63 | 128609 | 143221 10 | 31:49.47 | 2:42.60 | 143222 | 155431 11 | 34:32.32 | 2:45.54 | 155432 | 167860 12 | 37:18.11 | 2:34.62 | 167861 | 179472 13 | 39:52.73 | 3:18.51 | 179473 | 194373 14 | 43:11.49 | 4:38.00 | 194374 | 215223 15 | 50:21.49 | 0:08.00 | 226624 | 227223
Track 1
Filename D:\Music\My torrents\Лубнин, Гавриил Вадимович\[2004] Пьянство Бритва (запись 1998)\01. Гавриил Лубнин - Нежный Пожарный.wav
Pre-gap length 0:00:02.00
Peak level 99.9 % Extraction speed 2.5 X Track quality 100.0 % Test CRC 5DFC122E Copy CRC 5DFC122E Track not present in AccurateRip database Copy OK
Track 2
Filename D:\Music\My torrents\Лубнин, Гавриил Вадимович\[2004] Пьянство Бритва (запись 1998)\02. Гавриил Лубнин - В Зоопарке.wav
Peak level 99.9 % Extraction speed 2.7 X Track quality 100.0 % Test CRC E93CEA31 Copy CRC E93CEA31 Track not present in AccurateRip database Copy OK
Track 3
Filename D:\Music\My torrents\Лубнин, Гавриил Вадимович\[2004] Пьянство Бритва (запись 1998)\03. Гавриил Лубнин - Волки Спрятались.wav
Peak level 99.9 % Extraction speed 2.1 X Track quality 99.9 % Test CRC C5081468 Copy CRC C5081468 Track not present in AccurateRip database Copy OK
Track 4
Filename D:\Music\My torrents\Лубнин, Гавриил Вадимович\[2004] Пьянство Бритва (запись 1998)\04. Гавриил Лубнин - Иди Сюда (Сл. Отца).wav
Peak level 99.9 % Extraction speed 3.0 X Track quality 100.0 % Test CRC EACF8D05 Copy CRC EACF8D05 Track not present in AccurateRip database Copy OK
Track 5
Filename D:\Music\My torrents\Лубнин, Гавриил Вадимович\[2004] Пьянство Бритва (запись 1998)\05. Гавриил Лубнин - Кукушка.wav
Peak level 99.9 % Extraction speed 3.1 X Track quality 100.0 % Test CRC 09B35ACA Copy CRC 09B35ACA Track not present in AccurateRip database Copy OK
Track 6
Filename D:\Music\My torrents\Лубнин, Гавриил Вадимович\[2004] Пьянство Бритва (запись 1998)\06. Гавриил Лубнин - Боюсь Зимы.wav
Peak level 99.9 % Extraction speed 3.4 X Track quality 100.0 % Test CRC B53E8A49 Copy CRC B53E8A49 Track not present in AccurateRip database Copy OK
Track 7
Filename D:\Music\My torrents\Лубнин, Гавриил Вадимович\[2004] Пьянство Бритва (запись 1998)\07. Гавриил Лубнин - Запоище (Ю.К.).wav
Peak level 99.9 % Extraction speed 3.8 X Track quality 100.0 % Test CRC 58409D08 Copy CRC 58409D08 Track not present in AccurateRip database Copy OK
Track 8
Filename D:\Music\My torrents\Лубнин, Гавриил Вадимович\[2004] Пьянство Бритва (запись 1998)\08. Гавриил Лубнин - Мумия.wav
Peak level 99.9 % Extraction speed 3.6 X Track quality 100.0 % Test CRC 8ECEB114 Copy CRC 8ECEB114 Track not present in AccurateRip database Copy OK
Track 9
Filename D:\Music\My torrents\Лубнин, Гавриил Вадимович\[2004] Пьянство Бритва (запись 1998)\09. Гавриил Лубнин - Вода.wav
Peak level 99.9 % Extraction speed 3.3 X Track quality 99.9 % Test CRC 5B714634 Copy CRC 5B714634 Track not present in AccurateRip database Copy OK
Track 10
Filename D:\Music\My torrents\Лубнин, Гавриил Вадимович\[2004] Пьянство Бритва (запись 1998)\10. Гавриил Лубнин - Валерик.wav
Peak level 99.9 % Extraction speed 3.8 X Track quality 100.0 % Test CRC CA2B44C2 Copy CRC CA2B44C2 Track not present in AccurateRip database Copy OK
Track 11
Filename D:\Music\My torrents\Лубнин, Гавриил Вадимович\[2004] Пьянство Бритва (запись 1998)\11. Гавриил Лубнин - Цаката.wav
Peak level 99.9 % Extraction speed 4.0 X Track quality 100.0 % Test CRC 5BB57D76 Copy CRC 5BB57D76 Track not present in AccurateRip database Copy OK
Track 12
Filename D:\Music\My torrents\Лубнин, Гавриил Вадимович\[2004] Пьянство Бритва (запись 1998)\12. Гавриил Лубнин - Нина С Москвы.wav
Peak level 99.9 % Extraction speed 3.9 X Track quality 100.0 % Test CRC 3B05D412 Copy CRC 3B05D412 Track not present in AccurateRip database Copy OK
Track 13
Filename D:\Music\My torrents\Лубнин, Гавриил Вадимович\[2004] Пьянство Бритва (запись 1998)\13. Гавриил Лубнин - Жил Был Итальянец.wav
Peak level 99.9 % Extraction speed 4.3 X Track quality 100.0 % Test CRC 089D17C7 Copy CRC 089D17C7 Track not present in AccurateRip database Copy OK
Track 14
Filename D:\Music\My torrents\Лубнин, Гавриил Вадимович\[2004] Пьянство Бритва (запись 1998)\14. Лубнин & Гаркуша - Лесная (Лубнин & Гаркуша).wav
Pre-gap length 0:00:09.53
Peak level 99.9 % Extraction speed 4.6 X Track quality 100.0 % Test CRC 233A6043 Copy CRC 233A6043 Track not present in AccurateRip database Copy OK
None of the tracks are present in the AccurateRip database
No errors occurred
End of status report
---- CUETools DB Plugin V2.1.6
[CTDB TOCID: ci0cxlC6FVjoVQ80OkoKO.O.Rwc-] disk not present in databaseSubmit result: ci0cxlC6FVjoVQ80OkoKO.O.Rwc- has been uploaded
==== Log checksum 835C8D603495A6FA486DFE71A09573E61B60048AC29D8307D2AA26368E8D62FE ====

Содержание индексной карты (.CUE)

REM GENRE "Acoustic, Chanson, Neofolk, Vocal"REM DATE 2004REM DISCID C90BD50FREM COMMENT "ExactAudioCopy v1.3"PERFORMER "Гавриил Лубнин"TITLE "Пьянство Бритва"REM COMPOSER "Лубнин, Гавриил Вадимович"FILE "01. Гавриил Лубнин - Нежный Пожарный.flac" WAVE TRACK 01 AUDIO TITLE "Нежный Пожарный" PERFORMER "Гавриил Лубнин" REM COMPOSER "Лубнин, Гавриил Вадимович" FLAGS DCP INDEX 01 00:00:00FILE "02. Гавриил Лубнин - В Зоопарке.flac" WAVE TRACK 02 AUDIO TITLE "В Зоопарке" PERFORMER "Гавриил Лубнин" REM COMPOSER "Лубнин, Гавриил Вадимович" FLAGS DCP INDEX 01 00:00:00FILE "03. Гавриил Лубнин - Волки Спрятались.flac" WAVE TRACK 03 AUDIO TITLE "Волки Спрятались" PERFORMER "Гавриил Лубнин" REM COMPOSER "Лубнин, Гавриил Вадимович" FLAGS DCP INDEX 01 00:00:00FILE "04. Гавриил Лубнин - Иди Сюда (Сл. Отца).flac" WAVE TRACK 04 AUDIO TITLE "Иди Сюда (Сл. Отца)" PERFORMER "Гавриил Лубнин" REM COMPOSER "Лубнин, Гавриил Вадимович" FLAGS DCP INDEX 01 00:00:00FILE "05. Гавриил Лубнин - Кукушка.flac" WAVE TRACK 05 AUDIO TITLE "Кукушка" PERFORMER "Гавриил Лубнин" REM COMPOSER "Лубнин, Гавриил Вадимович" FLAGS DCP INDEX 01 00:00:00FILE "06. Гавриил Лубнин - Боюсь Зимы.flac" WAVE TRACK 06 AUDIO TITLE "Боюсь Зимы" PERFORMER "Гавриил Лубнин" REM COMPOSER "Лубнин, Гавриил Вадимович" FLAGS DCP INDEX 01 00:00:00FILE "07. Гавриил Лубнин - Запоище (Ю.К.).flac" WAVE TRACK 07 AUDIO TITLE "Запоище (Ю.К.)" PERFORMER "Гавриил Лубнин" REM COMPOSER "Лубнин, Гавриил Вадимович" FLAGS DCP INDEX 01 00:00:00FILE "08. Гавриил Лубнин - Мумия.flac" WAVE TRACK 08 AUDIO TITLE "Мумия" PERFORMER "Гавриил Лубнин" REM COMPOSER "Лубнин, Гавриил Вадимович" FLAGS DCP INDEX 01 00:00:00FILE "09. Гавриил Лубнин - Вода.flac" WAVE TRACK 09 AUDIO TITLE "Вода" PERFORMER "Гавриил Лубнин" REM COMPOSER "Лубнин, Гавриил Вадимович" FLAGS DCP INDEX 01 00:00:00FILE "10. Гавриил Лубнин - Валерик.flac" WAVE TRACK 10 AUDIO TITLE "Валерик" PERFORMER "Гавриил Лубнин" REM COMPOSER "Лубнин, Гавриил Вадимович" FLAGS DCP INDEX 01 00:00:00FILE "11. Гавриил Лубнин - Цаката.flac" WAVE TRACK 11 AUDIO TITLE "Цаката" PERFORMER "Гавриил Лубнин" REM COMPOSER "Лубнин, Гавриил Вадимович" FLAGS DCP INDEX 01 00:00:00FILE "12. Гавриил Лубнин - Нина С Москвы.flac" WAVE TRACK 12 AUDIO TITLE "Нина С Москвы" PERFORMER "Гавриил Лубнин" REM COMPOSER "Лубнин, Гавриил Вадимович" FLAGS DCP INDEX 01 00:00:00FILE "13. Гавриил Лубнин - Жил Был Итальянец.flac" WAVE TRACK 13 AUDIO TITLE "Жил Был Итальянец" PERFORMER "Гавриил Лубнин" REM COMPOSER "Лубнин, Гавриил Вадимович" FLAGS DCP INDEX 01 00:00:00 TRACK 14 AUDIO TITLE "Лесная (Лубнин & Гаркуша)" PERFORMER "Лубнин & Гаркуша" REM COMPOSER "Лубнин, Гавриил Вадимович" FLAGS DCP INDEX 00 03:08:73FILE "14. Лубнин & Гаркуша - Лесная (Лубнин & Гаркуша).flac" WAVE INDEX 01 00:00:00

Замер динамического диапазона (DR)

foobar2000 1.3.10 / Замер динамического диапазона (DR) 1.1.1Дата отчёта: 2019-04-27 18:36:33
--------------------------------------------------------------------------------Анализ: Гавриил Лубнин / Пьянство Бритва (1-13) Лубнин & Гаркуша / Пьянство Бритва (14)--------------------------------------------------------------------------------
DR Пики RMS Продолжительность трека--------------------------------------------------------------------------------DR9 -0.01 дБ -10.35 дБ 3:57 01-Нежный ПожарныйDR9 0.00 дБ -11.15 дБ 3:36 02-В ЗоопаркеDR10 0.00 дБ -12.41 дБ 2:09 03-Волки СпряталисьDR8 0.00 дБ -9.53 дБ 3:43 04-Иди Сюда (Сл. Отца)DR9 -0.01 дБ -11.01 дБ 2:56 05-КукушкаDR8 0.00 дБ -10.21 дБ 3:46 06-Боюсь ЗимыDR10 0.00 дБ -12.59 дБ 5:40 07-Запоище (Ю.К.)DR9 0.00 дБ -11.18 дБ 2:48 08-МумияDR8 -0.01 дБ -10.21 дБ 3:15 09-ВодаDR10 0.00 дБ -12.99 дБ 2:43 10-ВалерикDR8 0.00 дБ -10.69 дБ 2:46 11-ЦакатаDR8 0.00 дБ -10.08 дБ 2:35 12-Нина С МосквыDR9 -0.01 дБ -11.11 дБ 3:19 13-Жил Был ИтальянецDR8 0.00 дБ -10.05 дБ 4:38 14-Лесная (Лубнин & Гаркуша)--------------------------------------------------------------------------------
Количество треков: 14Реальные значения DR: DR9
Частота: 44100 ГцКаналов: 2Разрядность: 16Битрейт: 883 кбит/сКодек: FLAC================================================================================

[2007] Бадяга Spongilla

Гавриил Лубнин / Бадяга Spongilla
Жанр: Acoustic, Chanson, Neofolk, Vocal
Носитель: CD
Страна-производитель диска (релиза): Россия
Год издания: 2007
Издатель (лейбл): Ulitka Records
Номер по каталогу: U 008
Страна исполнителя (группы): Россия
Аудиокодек: FLAC (*.flac)
Тип рипа: tracks+.cue
Продолжительность: 56:09.920 (148 613 472 samples)
Источник: собственный рип
Наличие сканов в содержимом раздачи: да
Треклист:
01. Кобелек [0:04:09.09]
02. Панама [0:03:29.74]
03. Бабочка [0:04:04.27]
04. Будильник И Медведь [0:05:18.55]
05. Сказать Бы [0:04:54.11]
06. Вино [0:03:45.20]
07. Случилось [0:04:09.04]
08. Гурманы [0:03:26.51]
09. Бадяга [0:08:41.09]
10. Она Обещала [0:04:51.10]
11. А Я ? [0:06:05.51]
12. Дождичек [0:03:14.48]

Лог создания рипа

Exact Audio Copy V1.3 from 2. September 2016
EAC extraction logfile from 25. April 2019, 15:14
Гавриил Лубнин / Бадяга Spongilla
Used drive : MATSHITADVD-RAM UJ8B0AW Adapter: 1 ID: 0
Read mode : SecureUtilize accurate stream : YesDefeat audio cache : YesMake use of C2 pointers : No
Read offset correction : 102Overread into Lead-In and Lead-Out : NoFill up missing offset samples with silence : YesDelete leading and trailing silent blocks : NoNull samples used in CRC calculations : YesUsed interface : Native Win32 interface for Win NT & 2000Gap handling : Appended to previous track
Used output format : User Defined EncoderSelected bitrate : 1024 kBit/sQuality : HighAdd ID3 tag : NoCommand line compressor : C:\Program Files (x86)\Exact Audio Copy\FLAC\FLAC.EXEAdditional command line options : -V -8 -T "Genre=%genre%" -T "Artist=%artist%" -T "Title=%title%" -T "Album=%albumtitle%" -T "Date=%year%" -T "Tracknumber=%tracknr%" -T "Comment=%comment%" %source%
TOC of the extracted CD
Track | Start | Length | Start sector | End sector --------------------------------------------------------- 1 | 0:00.00 | 4:09.09 | 0 | 18683 2 | 4:09.09 | 3:29.74 | 18684 | 34432 3 | 7:39.08 | 4:04.27 | 34433 | 52759 4 | 11:43.35 | 5:18.55 | 52760 | 76664 5 | 17:02.15 | 4:54.11 | 76665 | 98725 6 | 21:56.26 | 3:45.20 | 98726 | 115620 7 | 25:41.46 | 4:09.04 | 115621 | 134299 8 | 29:50.50 | 3:26.51 | 134300 | 149800 9 | 33:17.26 | 8:41.09 | 149801 | 188884 10 | 41:58.35 | 4:51.10 | 188885 | 210719 11 | 46:49.45 | 6:05.51 | 210720 | 238145 12 | 52:55.21 | 3:14.48 | 238146 | 252743
Track 1
Filename D:\Music\My torrents\Лубнин, Гавриил Вадимович\[2007] Бадяга Spongilla\01. Гавриил Лубнин - Кобелек.wav
Pre-gap length 0:00:02.00
Peak level 99.2 % Extraction speed 1.1 X Track quality 100.0 % Test CRC C6FC30D4 Copy CRC C6FC30D4 Track not present in AccurateRip database Copy OK
Track 2
Filename D:\Music\My torrents\Лубнин, Гавриил Вадимович\[2007] Бадяга Spongilla\02. Гавриил Лубнин - Панама.wav
Pre-gap length 0:00:02.00
Peak level 99.2 % Extraction speed 1.2 X Track quality 100.0 % Test CRC 6BC62F62 Copy CRC 6BC62F62 Track not present in AccurateRip database Copy OK
Track 3
Filename D:\Music\My torrents\Лубнин, Гавриил Вадимович\[2007] Бадяга Spongilla\03. Гавриил Лубнин - Бабочка.wav
Pre-gap length 0:00:02.07
Peak level 99.4 % Extraction speed 1.2 X Track quality 99.9 % Test CRC 02C1514D Copy CRC 02C1514D Track not present in AccurateRip database Copy OK
Track 4
Filename D:\Music\My torrents\Лубнин, Гавриил Вадимович\[2007] Бадяга Spongilla\04. Гавриил Лубнин - Будильник И Медведь.wav
Pre-gap length 0:00:02.00
Peak level 99.2 % Extraction speed 1.4 X Track quality 99.9 % Test CRC 160FA1FC Copy CRC 160FA1FC Track not present in AccurateRip database Copy OK
Track 5
Filename D:\Music\My torrents\Лубнин, Гавриил Вадимович\[2007] Бадяга Spongilla\05. Гавриил Лубнин - Сказать Бы.wav
Pre-gap length 0:00:02.00
Peak level 99.2 % Extraction speed 1.5 X Track quality 99.9 % Test CRC B6E50106 Copy CRC B6E50106 Track not present in AccurateRip database Copy OK
Track 6
Filename D:\Music\My torrents\Лубнин, Гавриил Вадимович\[2007] Бадяга Spongilla\06. Гавриил Лубнин - Вино.wav
Pre-gap length 0:00:02.00
Peak level 99.4 % Extraction speed 1.7 X Track quality 100.0 % Test CRC 964AE919 Copy CRC 964AE919 Track not present in AccurateRip database Copy OK
Track 7
Filename D:\Music\My torrents\Лубнин, Гавриил Вадимович\[2007] Бадяга Spongilla\07. Гавриил Лубнин - Случилось.wav
Pre-gap length 0:00:02.00
Peak level 99.4 % Extraction speed 1.9 X Track quality 100.0 % Test CRC E0FF53B7 Copy CRC E0FF53B7 Track not present in AccurateRip database Copy OK
Track 8
Filename D:\Music\My torrents\Лубнин, Гавриил Вадимович\[2007] Бадяга Spongilla\08. Гавриил Лубнин - Гурманы.wav
Pre-gap length 0:00:01.68
Peak level 99.3 % Extraction speed 1.9 X Track quality 100.0 % Test CRC 9B40DE26 Copy CRC 9B40DE26 Track not present in AccurateRip database Copy OK
Track 9
Filename D:\Music\My torrents\Лубнин, Гавриил Вадимович\[2007] Бадяга Spongilla\09. Гавриил Лубнин - Бадяга.wav
Pre-gap length 0:00:02.00
Peak level 99.2 % Extraction speed 2.2 X Track quality 100.0 % Test CRC B1119516 Copy CRC B1119516 Track not present in AccurateRip database Copy OK
Track 10
Filename D:\Music\My torrents\Лубнин, Гавриил Вадимович\[2007] Бадяга Spongilla\10. Гавриил Лубнин - Она Обещала.wav
Pre-gap length 0:00:02.00
Peak level 99.4 % Extraction speed 2.0 X Track quality 99.9 % Test CRC B865AB1A Copy CRC B865AB1A Track not present in AccurateRip database Copy OK
Track 11
Filename D:\Music\My torrents\Лубнин, Гавриил Вадимович\[2007] Бадяга Spongilla\11. Гавриил Лубнин - А Я.wav
Pre-gap length 0:00:02.00
Peak level 99.4 % Extraction speed 2.4 X Track quality 100.0 % Test CRC A8E56ED3 Copy CRC A8E56ED3 Track not present in AccurateRip database Copy OK
Track 12
Filename D:\Music\My torrents\Лубнин, Гавриил Вадимович\[2007] Бадяга Spongilla\12. Гавриил Лубнин - Дождичек.wav
Pre-gap length 0:00:02.00
Peak level 99.9 % Extraction speed 2.3 X Track quality 100.0 % Test CRC 137753DB Copy CRC 137753DB Track not present in AccurateRip database Copy OK
None of the tracks are present in the AccurateRip database
No errors occurred
End of status report
---- CUETools DB Plugin V2.1.6
[CTDB TOCID: VZfyje8EmPGOxkFKxvpBNSodLNw-] foundSubmit result: VZfyje8EmPGOxkFKxvpBNSodLNw- has been confirmedTrack | CTDB Status 1 | (2/2) Accurately ripped 2 | (2/2) Accurately ripped 3 | (2/2) Accurately ripped 4 | (2/2) Accurately ripped 5 | (2/2) Accurately ripped 6 | (2/2) Accurately ripped 7 | (2/2) Accurately ripped 8 | (2/2) Accurately ripped 9 | (2/2) Accurately ripped 10 | (2/2) Accurately ripped 11 | (2/2) Accurately ripped 12 | (2/2) Accurately ripped
==== Log checksum 23DD2A942F6B51CDB70A1346392264B9F5FF2E4B096D19FBFA42394350107A26 ====

Содержание индексной карты (.CUE)

REM GENRE "Acoustic, Chanson, Neofolk, Vocal"REM DATE 2007REM DISCID 980D290CREM COMMENT "ExactAudioCopy v1.3"PERFORMER "Гавриил Лубнин"TITLE "Бадяга Spongilla"REM COMPOSER "Лубнин, Гавриил Вадимович"FILE "01. Гавриил Лубнин - Кобелек.flac" WAVE TRACK 01 AUDIO TITLE "Кобелек" PERFORMER "Гавриил Лубнин" REM COMPOSER "Лубнин, Гавриил Вадимович" INDEX 01 00:00:00 TRACK 02 AUDIO TITLE "Панама" PERFORMER "Гавриил Лубнин" REM COMPOSER "Лубнин, Гавриил Вадимович" INDEX 00 04:07:09FILE "02. Гавриил Лубнин - Панама.flac" WAVE INDEX 01 00:00:00 TRACK 03 AUDIO TITLE "Бабочка" PERFORMER "Гавриил Лубнин" REM COMPOSER "Лубнин, Гавриил Вадимович" INDEX 00 03:27:67FILE "03. Гавриил Лубнин - Бабочка.flac" WAVE INDEX 01 00:00:00 TRACK 04 AUDIO TITLE "Будильник И Медведь" PERFORMER "Гавриил Лубнин" REM COMPOSER "Лубнин, Гавриил Вадимович" INDEX 00 04:02:27FILE "04. Гавриил Лубнин - Будильник И Медведь.flac" WAVE INDEX 01 00:00:00 TRACK 05 AUDIO TITLE "Сказать Бы" PERFORMER "Гавриил Лубнин" REM COMPOSER "Лубнин, Гавриил Вадимович" INDEX 00 05:16:55FILE "05. Гавриил Лубнин - Сказать Бы.flac" WAVE INDEX 01 00:00:00 TRACK 06 AUDIO TITLE "Вино" PERFORMER "Гавриил Лубнин" REM COMPOSER "Лубнин, Гавриил Вадимович" INDEX 00 04:52:11FILE "06. Гавриил Лубнин - Вино.flac" WAVE INDEX 01 00:00:00 TRACK 07 AUDIO TITLE "Случилось" PERFORMER "Гавриил Лубнин" REM COMPOSER "Лубнин, Гавриил Вадимович" INDEX 00 03:43:20FILE "07. Гавриил Лубнин - Случилось.flac" WAVE INDEX 01 00:00:00 TRACK 08 AUDIO TITLE "Гурманы" PERFORMER "Гавриил Лубнин" REM COMPOSER "Лубнин, Гавриил Вадимович" INDEX 00 04:07:11FILE "08. Гавриил Лубнин - Гурманы.flac" WAVE INDEX 01 00:00:00 TRACK 09 AUDIO TITLE "Бадяга" PERFORMER "Гавриил Лубнин" REM COMPOSER "Лубнин, Гавриил Вадимович" INDEX 00 03:24:51FILE "09. Гавриил Лубнин - Бадяга.flac" WAVE INDEX 01 00:00:00 TRACK 10 AUDIO TITLE "Она Обещала" PERFORMER "Гавриил Лубнин" REM COMPOSER "Лубнин, Гавриил Вадимович" INDEX 00 08:39:09FILE "10. Гавриил Лубнин - Она Обещала.flac" WAVE INDEX 01 00:00:00 TRACK 11 AUDIO TITLE "А Я ?" PERFORMER "Гавриил Лубнин" REM COMPOSER "Лубнин, Гавриил Вадимович" INDEX 00 04:49:10FILE "11. Гавриил Лубнин - А Я.flac" WAVE INDEX 01 00:00:00 TRACK 12 AUDIO TITLE "Дождичек" PERFORMER "Гавриил Лубнин" REM COMPOSER "Лубнин, Гавриил Вадимович" INDEX 00 06:03:51FILE "12. Гавриил Лубнин - Дождичек.flac" WAVE INDEX 01 00:00:00

Замер динамического диапазона (DR)

foobar2000 1.3.10 / Замер динамического диапазона (DR) 1.1.1Дата отчёта: 2019-04-25 15:18:20
--------------------------------------------------------------------------------Анализ: Гавриил Лубнин / Бадяга Spongilla--------------------------------------------------------------------------------
DR Пики RMS Продолжительность трека--------------------------------------------------------------------------------DR11 -0.06 дБ -14.68 дБ 4:09 01-КобелекDR11 -0.06 дБ -13.56 дБ 3:30 02-ПанамаDR13 -0.05 дБ -15.85 дБ 4:04 03-БабочкаDR12 -0.06 дБ -15.52 дБ 5:19 04-Будильник И МедведьDR10 -0.06 дБ -14.18 дБ 4:54 05-Сказать БыDR9 -0.05 дБ -12.00 дБ 3:45 06-ВиноDR8 -0.05 дБ -11.80 дБ 4:09 07-СлучилосьDR11 -0.06 дБ -13.74 дБ 3:27 08-ГурманыDR9 -0.06 дБ -12.13 дБ 8:41 09-БадягаDR9 -0.05 дБ -11.61 дБ 4:51 10-Она ОбещалаDR11 -0.05 дБ -14.18 дБ 6:06 11-А Я ?DR11 -0.01 дБ -12.90 дБ 3:15 12-Дождичек--------------------------------------------------------------------------------
Количество треков: 12Реальные значения DR: DR10
Частота: 44100 ГцКаналов: 2Разрядность: 16Битрейт: 820 кбит/сКодек: FLAC================================================================================


[geo-torrent.biz]_t_2066236.torrent
Torrent: Registered ·  [ 2019-05-05 19:11 ] ·  d210a1509bc0797820adea59a2977bb2fcc12a2e

27 KB

Status: checked
Completed: 0 times
Size: 1.68 GB
Rating: 
(Votes: 0)
Say thanks: 0  Thanks
Похожие темы
[Profile]    [PM]
Display posts from previous:    
Reply to topic

The time now is: Today 16:05

All times are GMT + 7 Hours



You cannot post new topics in this forum
You cannot reply to topics in this forum
You cannot edit your posts in this forum
You cannot delete your posts in this forum
You cannot vote in polls in this forum
You cannot attach files in this forum
You can download files in this forum