(Acid Jazz) [CD] Barry Adamson - The Negro Inside Me (Japan press ALCB-810) - 1993, FLAC (image+.cue), lossless

Reply to topic
DL-List and Torrent activity [Update пиров]
Size:  203 MB   |    Registered:  5 months 27 days   |    Completed:  0 times

Seeder not seen: Never

 
   
 
 
 
Author Message

Mr_Fox

Post 22-Apr-2019 01:45

[Quote]

Barry Adamson / The Negro Inside Me ( Japan press ALCB-810 )
Жанр: Acid Jazz
Носитель: CD
Страна-производитель диска (релиза): Japan
Год издания: 1993
Издатель (лейбл): Mute Records Limited
Номер по каталогу: ALCB-810
Страна исполнителя (группы): UK
Аудиокодек: FLAC (*.flac)
Тип рипа: image+.cue
Битрейт аудио: lossless
Продолжительность: 00:31:03
Источник: собственный рип
Наличие сканов в содержимом раздачи: да
Треклист:
1. The Snowball Effect 4:22
2. Dead Heat 4:52
3. Busted (Michaelangelo Version) 5:44
4. Cold Black Preach 6:25
5. Je T'Aime...Moi Non Plus 5:30
6. A Perfectly Natural Union 4:07

Лог создания рипа

Exact Audio Copy V1.3 from 2. September 2016
Отчёт EAC об извлечении, выполненном 7. марта 2019, 13:04
Barry Adamson / The Negro Inside Me ( ALCB-810 ) - 1993
Дисковод: PIONEER BD-RW BDR-TD03 Adapter: 1 ID: 0
Режим чтения : ДостоверностьИспользование точного потока : ДаОтключение кэша аудио : ДаИспользование указателей C2 : Нет
Коррекция смещения при чтении : 667Способность читать области Lead-in и Lead-out : НетЗаполнение пропущенных сэмплов тишиной : ДаУдаление блоков с тишиной в начале и конце : НетПри вычислениях CRC использовались нулевые сэмплы : ДаИнтерфейс : Встроенный Win32-интерфейс для Win NT/2000
Выходной формат : Пользовательский кодировщикВыбранный битрейт : 128 kBit/sКачество : ВысокийДобавление ID3-тега : НетУтилита сжатия : C:\Program Files (x86)\Exact Audio Copy\Flac\flac.exeДополнительные параметры : -V -8 -T "Date=%year%" -T "Genre=%genre%" %source%
TOC извлечённого CD
Трек | Старт | Длительность | Начальный сектор | Конечный сектор --------------------------------------------------------------------- 1 | 0:00.00 | 4:23.27 | 0 | 19751 2 | 4:23.27 | 4:52.23 | 19752 | 41674 3 | 9:15.50 | 5:44.15 | 41675 | 67489 4 | 14:59.65 | 6:25.57 | 67490 | 96421 5 | 21:25.47 | 5:30.43 | 96422 | 121214 6 | 26:56.15 | 4:07.10 | 121215 | 139749
Характеристики диапазона извлечения и сообщения об ошибках
Выбранный диапазон
Имя файла I:\Rip\Barry Adamson - The Negro Inside Me ( ALCB-810 ) - 1993\Barry Adamson - The Negro Inside Me ( ALCB-810 ) - 1993.wav
Пиковый уровень 100.0 % Скорость извлечения 3.8 X Качество диапазона 99.9 % CRC теста A0493291 CRC копии A0493291 Копирование... OK
Ошибок не произошло
AccurateRip: сводка
Трек 1 отсутствует в базе данныхТрек 2 отсутствует в базе данныхТрек 3 отсутствует в базе данныхТрек 4 отсутствует в базе данныхТрек 5 отсутствует в базе данныхТрек 6 отсутствует в базе данных
Ни одного трека нет в базе AccurateRip
Конец отчёта
---- CUETools DB Plugin V2.1.6
[CTDB TOCID: HXsEMl2D2GHqbVQyiFSc7srbgBU-] foundSubmit result: HXsEMl2D2GHqbVQyiFSc7srbgBU- has been confirmedTrack | CTDB Status 1 | (1/1) Accurately ripped 2 | (1/1) Accurately ripped 3 | (1/1) Accurately ripped 4 | (1/1) Accurately ripped 5 | (1/1) Accurately ripped 6 | (1/1) Accurately ripped
==== Контрольная сумма отчёта 82154CB1D8CF2CF6B0851B09483364AD4C779558A17D66BB2722D2F4AB236385 ====
Barry Adamson - Moss Side Story (Japan press 29B2-64) http:///forum/viewtopic.php?t=3909936
Barry Adamson - Soul Murder (Japan press ALCB-555) http:///forum/viewtopic.php?t=3476765
Barry Adamson - The Negro Inside Me ( Japan press ALCB-810 ) http:///forum/viewtopic.php?t=5701713
Barry Adamson - Oedipus Schmoedipus ( Japan press PCCY-01024 ) http:///forum/viewtopic.php?t=5701708
Jimi Tenor And His Shamans - Mekanoid http:///forum/viewtopic.php?t=5701729
Jimi Tenor - Intervision ( Japan press SRCS 8259 ) http:///forum/viewtopic.php?t=5701723
Jimi Tenor - Organism ( Japan press AICT 42 ) http:///forum/viewtopic.php?t=5701720
Jimi Tenor - Beyond The Stars (KY04084CD) http:///forum/viewtopic.php?t=2187113


[geo-torrent.biz]_t_5701713.torrent
Torrent: Registered ·  [ 2019-04-22 01:44 ] ·  23f56356eff3fc470bbc77990c8a438603f84676

17 KB

Status: checked
Completed: 0 times
Size: 203 MB
Rating: 
(Votes: 0)
Say thanks: 0  Thanks
Похожие темы
[Profile]    [PM]
Display posts from previous:    
Reply to topic

The time now is: Today 06:57

All times are GMT + 7 Hours



You cannot post new topics in this forum
You cannot reply to topics in this forum
You cannot edit your posts in this forum
You cannot delete your posts in this forum
You cannot vote in polls in this forum
You cannot attach files in this forum
You can download files in this forum