(Pop, Rock, Euro-House) [CD] VA - Bravo The Hits \'97 (2CD) - 1997, FLAC (image+.cue), lossless

Reply to topic
DL-List and Torrent activity [Update пиров]
Size:  1019 MB   |    Registered:  10 months 4 days   |    Completed:  1 time

Seeder not seen: 3 months 10 days

 
   
 
 
 
Author Message

Кейт

Post 18-Apr-2019 13:38

[Quote]

Bravo The Hits '97 (2CD)
Жанр: Pop, Rock, Euro-House
Носитель: CD
Страна-производитель диска (релиза): Bulgaria
Год издания: 1997
Издатель (лейбл): EMI, Warner Strategic Marketing
Номер по каталогу: 7243 8 23984 2 4
Аудиокодек: FLAC (*.flac)
Тип рипа: image+.cue
Продолжительность: 02:27:26
Источник: собственный рип
Наличие сканов в содержимом раздачи: нет
Треклист:

CD1 (01:13:41)

01. Nana - Lonely
02. Tic Tac Toe - Verpiß' Dich
03. Sabrina Setlur - Du Liebst Mich Nicht
04. Pappa Bear Feat. VanDerToorn - Cherish
05. Coolio Feat. 40 Thevz - C U When U Get There
06. Robert Miles - One & One
07. Cappuccino - Du Fehlst Mir
08. R. Kelly - I Believe I Can Fly
09. En Vogue - Don't Let Go (Love)
10. Spice Girls - Mama
11. Alina - Nur Fur Dich
12. C- Block - So Strung Out
13. Moby - James Bond Theme
14. The Moffatts - I'll Be There For You
15. No Mercy - Please Don't Go
16. Bed & Breakfast - All I Wanna Do
17. Space Curls - Wannabe (Willst Du Mich Als Lover)
18. A.K.-S.W.I.F.T. - Light In Me
19. Blackstreet Feat. Dr Dre - No Diggity

CD2 (01:13:45)

01. Dario G - Sunchyme
02. Members Of Mayday - Sonic Empire
03. Bellini - Samba De Janeiro
04. Dj Quicksilver - I Have A Dream
05. Sash! Feat. Rodriguez - Ecuador
06. Mr. President - JoJo Action
07. Backstreet Boys - Everybody (Backstreet's Back)
08. Dr. Motte And WestBam - Sunshine
09. Gala - Freed From Desire
10. Future Breeze - Why Don't You Dance With Me
11. Brooklyn Bounce - Get Ready To Bounce
12. Rammstein - Angel
13. The Prodigy - Breathe
14. Depeche Mode - Barrel Of A Gun
15. Westbam - Hard Times
16. Beam & Yanou - On Y Va
17. Blumchen - Nur Getraumt
18. Aaron Carter - Crush On You
19. N´Sync - Here We Go
20. Kelly Family - Fell In Love With An Alien

Лог создания рипаCD1

Exact Audio Copy V1.3 from 2. September 2016
Отчёт EAC об извлечении, выполненном 17. апреля 2019, 17:49
VA / Bravo The Hits '97 (CD 1)
Дисковод: ASUS DRW-24D5MT Adapter: 1 ID: 0
Режим чтения : ДостоверностьИспользование точного потока : ДаОтключение кэша аудио : ДаИспользование указателей C2 : Нет
Коррекция смещения при чтении : 6Способность читать области Lead-in и Lead-out : НетЗаполнение пропущенных сэмплов тишиной : ДаУдаление блоков с тишиной в начале и конце : НетПри вычислениях CRC использовались нулевые сэмплы : ДаИнтерфейс : Встроенный Win32-интерфейс для Win NT/2000
Выходной формат : Пользовательский кодировщикВыбранный битрейт : 128 kBit/sКачество : ВысокийДобавление ID3-тега : НетУтилита сжатия : C:\Program Files (x86)\Exact Audio Copy\Flac\flac.exeДополнительные параметры : -V -8 -T "Date=%year%" -T "Genre=%genre%" %source%
TOC извлечённого CD
Трек | Старт | Длительность | Начальный сектор | Конечный сектор --------------------------------------------------------------------- 1 | 0:00.00 | 3:53.39 | 0 | 17513 2 | 3:53.39 | 4:08.25 | 17514 | 36138 3 | 8:01.64 | 3:55.34 | 36139 | 53797 4 | 11:57.23 | 3:58.32 | 53798 | 71679 5 | 15:55.55 | 3:44.55 | 71680 | 88534 6 | 19:40.35 | 4:03.17 | 88535 | 106776 7 | 23:43.52 | 3:53.72 | 106777 | 124323 8 | 27:37.49 | 4:46.07 | 124324 | 145780 9 | 32:23.56 | 4:07.39 | 145781 | 164344 10 | 36:31.20 | 3:43.10 | 164345 | 181079 11 | 40:14.30 | 3:19.49 | 181080 | 196053 12 | 43:34.04 | 3:48.00 | 196054 | 213153 13 | 47:22.04 | 3:14.27 | 213154 | 227730 14 | 50:36.31 | 3:41.22 | 227731 | 244327 15 | 54:17.53 | 4:19.47 | 244328 | 263799 16 | 58:37.25 | 4:01.29 | 263800 | 281903 17 | 62:38.54 | 2:51.70 | 281904 | 294798 18 | 65:30.49 | 3:56.22 | 294799 | 312520 19 | 69:26.71 | 4:13.67 | 312521 | 331562
Характеристики диапазона извлечения и сообщения об ошибках
Выбранный диапазон
Имя файла D:\Фильмы\VA - Bravo The Hits '97 (1997)\VA - Bravo The Hits '97 (CD1)\VA - Bravo The Hits '97 (CD 1).wav
Пиковый уровень 99.9 % Скорость извлечения 8.4 X Качество диапазона 100.0 % CRC теста 98D1D65F CRC копии 98D1D65F Копирование... OK
Ошибок не произошло
AccurateRip: сводка
Трек 1 отсутствует в базе данныхТрек 2 отсутствует в базе данныхТрек 3 отсутствует в базе данныхТрек 4 отсутствует в базе данныхТрек 5 отсутствует в базе данныхТрек 6 отсутствует в базе данныхТрек 7 отсутствует в базе данныхТрек 8 отсутствует в базе данныхТрек 9 отсутствует в базе данныхТрек 10 отсутствует в базе данныхТрек 11 отсутствует в базе данныхТрек 12 отсутствует в базе данныхТрек 13 отсутствует в базе данныхТрек 14 отсутствует в базе данныхТрек 15 отсутствует в базе данныхТрек 16 отсутствует в базе данныхТрек 17 отсутствует в базе данныхТрек 18 отсутствует в базе данныхТрек 19 отсутствует в базе данных
Ни одного трека нет в базе AccurateRip
Конец отчёта
==== Контрольная сумма отчёта 5134195DF56B31B1C1AEC89B7CFA2FCF0FFDE701BFFB44D50A773B1F997212C9 ====

CD2

Exact Audio Copy V1.3 from 2. September 2016
Отчёт EAC об извлечении, выполненном 17. апреля 2019, 18:14
VA / Bravo The Hits '97 (CD 2)
Дисковод: ASUS DRW-24D5MT Adapter: 1 ID: 0
Режим чтения : ДостоверностьИспользование точного потока : ДаОтключение кэша аудио : ДаИспользование указателей C2 : Нет
Коррекция смещения при чтении : 6Способность читать области Lead-in и Lead-out : НетЗаполнение пропущенных сэмплов тишиной : ДаУдаление блоков с тишиной в начале и конце : НетПри вычислениях CRC использовались нулевые сэмплы : ДаИнтерфейс : Встроенный Win32-интерфейс для Win NT/2000
Выходной формат : Пользовательский кодировщикВыбранный битрейт : 128 kBit/sКачество : ВысокийДобавление ID3-тега : НетУтилита сжатия : C:\Program Files (x86)\Exact Audio Copy\Flac\flac.exeДополнительные параметры : -V -8 -T "Date=%year%" -T "Genre=%genre%" %source%
TOC извлечённого CD
Трек | Старт | Длительность | Начальный сектор | Конечный сектор --------------------------------------------------------------------- 1 | 0:00.00 | 3:55.57 | 0 | 17681 2 | 3:55.57 | 3:57.33 | 17682 | 35489 3 | 7:53.15 | 2:49.22 | 35490 | 48186 4 | 10:42.37 | 3:37.15 | 48187 | 64476 5 | 14:19.52 | 3:33.55 | 64477 | 80506 6 | 17:53.32 | 3:52.65 | 80507 | 97971 7 | 21:46.22 | 3:45.10 | 97972 | 114856 8 | 25:31.32 | 3:56.33 | 114857 | 132589 9 | 29:27.65 | 3:33.57 | 132590 | 148621 10 | 33:01.47 | 3:25.48 | 148622 | 164044 11 | 36:27.20 | 3:35.10 | 164045 | 180179 12 | 40:02.30 | 4:24.67 | 180180 | 200046 13 | 44:27.22 | 4:00.68 | 200047 | 218114 14 | 48:28.15 | 3:44.52 | 218115 | 234966 15 | 52:12.67 | 3:47.18 | 234967 | 252009 16 | 56:00.10 | 3:47.15 | 252010 | 269049 17 | 59:47.25 | 3:44.22 | 269050 | 285871 18 | 63:31.47 | 3:28.05 | 285872 | 301476 19 | 66:59.52 | 3:33.63 | 301477 | 317514 20 | 70:33.40 | 3:11.70 | 317515 | 331909
Характеристики диапазона извлечения и сообщения об ошибках
Выбранный диапазон
Имя файла D:\Фильмы\VA - Bravo The Hits '97 (1997)\VA - Bravo The Hits '97 (CD2)\VA - Bravo The Hits '97 (CD 2).wav
Пиковый уровень 99.9 % Скорость извлечения 6.7 X Качество диапазона 99.9 % CRC теста D85E6E27 CRC копии D1447527 Копирование... OK
Ошибок не произошло
AccurateRip: сводка
Трек 1 отсутствует в базе данныхТрек 2 отсутствует в базе данныхТрек 3 отсутствует в базе данныхТрек 4 отсутствует в базе данныхТрек 5 отсутствует в базе данныхТрек 6 отсутствует в базе данныхТрек 7 отсутствует в базе данныхТрек 8 отсутствует в базе данныхТрек 9 отсутствует в базе данныхТрек 10 отсутствует в базе данныхТрек 11 отсутствует в базе данныхТрек 12 отсутствует в базе данныхТрек 13 отсутствует в базе данныхТрек 14 отсутствует в базе данныхТрек 15 отсутствует в базе данныхТрек 16 отсутствует в базе данныхТрек 17 отсутствует в базе данныхТрек 18 отсутствует в базе данныхТрек 19 отсутствует в базе данныхТрек 20 отсутствует в базе данных
Ни одного трека нет в базе AccurateRip
Конец отчёта
==== Контрольная сумма отчёта BA6CF9BD624375F525106C76E7DFBA69C6A936B305CD1B96AAE5331E27892D61 ====


[geo-torrent.biz]_t_5720043.torrent
Torrent: Registered ·  [ 2019-04-18 13:38 ] ·  be6c327826708d986a1c77cc9815f8af8c0479f2

21 KB

Status: checked
Completed: 1 times
Size: 1019 MB
Rating: 
(Votes: 0)
Say thanks: 0  Thanks
Похожие темы
[Profile]    [PM]
Display posts from previous:    
Reply to topic

The time now is: Today 13:35

All times are GMT + 7 Hours



You cannot post new topics in this forum
You cannot reply to topics in this forum
You cannot edit your posts in this forum
You cannot delete your posts in this forum
You cannot vote in polls in this forum
You cannot attach files in this forum
You can download files in this forum