(Top 20, Pop, Pop-Rock, Electronic, Hip Hop, House) [CD] VA - BRAVO Hits 1 - 1992, FLAC (image+.cue), lossless

Reply to topic
DL-List and Torrent activity [Update пиров]
Size:  410 MB   |    Registered:  10 months   |    Completed:  0 times

Seeder not seen: Never

 
   
 
 
 
Author Message

Кейт

Post 17-Apr-2019 13:47

[Quote]

BRAVO Hits 1 Жанр: Top 20, Pop, Pop-Rock, Electronic, Hip Hop, House, Electro, Hip-House, Synthpop, Europop, R&B, Pop Rap, Latin, Euro House, Downtempo, Indie Rock, Punk
Носитель: CD
Страна-производитель диска: Germany
Год издания: 21.04.1992
Издатель: WSM
Номер по каталогу: 9548-31256-2
Аудиокодек: FLAC (*.flac)
Тип рипа: image+.cue
Продолжительность: 01:03:55
Источник: интернет
Наличие сканов в содержимом раздачи: да
Треклист:
01. Sandra - Don't Be Aggressive
02. U96 - Das Boot
03. Marky Mark & The Funky Bunch - I Need Money
04. Army Of Lovers - Obsession
05. Right Said Fred - Don't Talk Just Kiss
06. Depeche Mode - World In My Eyes
07. New Kids On The Block - If You Go Away
08. Hape Kerkeling - Hurz!!!
09. Mr. Big - To Be With You
10. Clouseau - Close Encounters
11. Ten Sharp - You
12. Fats Domino - I'm Walking
13. Roxette - Church Of Your Heart
14. Opus III - It's A Fine Day
15. Osmond Boys - Show Me The Way
16. Various Items - I Wanna Be A Kennedy (Us Mix)

Лог создания рипа

Exact Audio Copy V1.0 beta 3 from 29. August 2011
EAC extraction logfile from 22. March 2019, 20:33
Various / Bravo Hits 1
Used drive : ARIL IBO5IVCX Adapter: 2 ID: 0
Read mode : Burst
Read offset correction : 0Overread into Lead-In and Lead-Out : NoFill up missing offset samples with silence : YesDelete leading and trailing silent blocks : NoNull samples used in CRC calculations : YesUsed interface : Native Win32 interface for Win NT & 2000
Used output format : Internal WAV RoutinesSample format : 44.100 Hz; 16 Bit; Stereo
TOC of the extracted CD
Track | Start | Length | Start sector | End sector --------------------------------------------------------- 1 | 0:00.00 | 4:44.46 | 0 | 21345 2 | 4:44.46 | 5:13.67 | 21346 | 44887 3 | 9:58.38 | 3:42.19 | 44888 | 61556 4 | 13:40.57 | 3:43.04 | 61557 | 78285 5 | 17:23.61 | 3:14.19 | 78286 | 92854 6 | 20:38.05 | 4:22.24 | 92855 | 112528 7 | 25:00.29 | 5:26.64 | 112529 | 137042 8 | 30:27.18 | 3:24.30 | 137043 | 152372 9 | 33:51.48 | 3:27.49 | 152373 | 167946 10 | 37:19.22 | 3:50.34 | 167947 | 185230 11 | 41:09.56 | 4:30.19 | 185231 | 205499 12 | 45:40.00 | 2:13.19 | 205500 | 215493 13 | 47:53.19 | 3:17.30 | 215494 | 230298 14 | 51:10.49 | 3:33.49 | 230299 | 246322 15 | 54:44.23 | 3:46.24 | 246323 | 263296 16 | 58:30.47 | 5:24.42 | 263297 | 287638
Range status and errors
Selected range
Filename C:\Users\Roman\Desktop\Various - Bravo Hits 1.wav
Peak level 99.8 % Extraction speed 157.5 X Test CRC F949DF61 Copy CRC F949DF61 Copy OK
No errors occurred
End of status report
==== Log checksum FF6F3E7E6D67171E1E2F03F85486C745428D6D89E991876BD0FE3B2BA751AA15 ====

Содержание индексной карты (.CUE)

REM ACCURATERIPID 00263049-01c431f8-bf0efb10REM COMMENT "CUETools generated dummy CUE sheet"REM DISCNUMBER 1REM DATE 1992REM GENRE "Pop"PERFORMER "Various"TITLE "Bravo Hits Vol.1"FILE "Bravo Hits (1992) Vol.1 (Other Version).flac" WAVE TRACK 01 AUDIO TITLE "Don't Be Aggressive" PERFORMER "Sandra" INDEX 01 00:00:00 TRACK 02 AUDIO TITLE "Das Boot (Techno Version)" PERFORMER "U 96" INDEX 01 04:44:47 TRACK 03 AUDIO TITLE "I Need Money (Radio Mix)" PERFORMER "Marky Mark & The Funky Bunch" INDEX 01 09:58:40 TRACK 04 AUDIO TITLE "Obsession" PERFORMER "Army Of Lovers" INDEX 01 13:40:60 TRACK 05 AUDIO TITLE "Don't Talk Just Kiss" PERFORMER "Right Said Fred" INDEX 01 17:23:65 TRACK 06 AUDIO TITLE "World In My Eyes" PERFORMER "Depeche Mode" INDEX 01 20:38:10 TRACK 07 AUDIO TITLE "If You Go Away" PERFORMER "New Kids On The Block" INDEX 01 25:00:35 TRACK 08 AUDIO TITLE "Hurz!!!" PERFORMER "Hape Kerkeling" INDEX 01 30:27:25 TRACK 09 AUDIO TITLE "To Be With You" PERFORMER "Mr. Big" INDEX 01 33:51:55 TRACK 10 AUDIO TITLE "Close Encounters" PERFORMER "Clouseau" INDEX 01 37:19:30 TRACK 11 AUDIO TITLE "You" PERFORMER "Ten Sharp" INDEX 01 41:09:65 TRACK 12 AUDIO TITLE "I'm Walking" PERFORMER "Fats Domino" INDEX 01 45:40:10 TRACK 13 AUDIO TITLE "Church Of Your Heart" PERFORMER "Roxette" INDEX 01 47:53:30 TRACK 14 AUDIO TITLE "It's A Fine Day" PERFORMER "Opus III" INDEX 01 51:10:60 TRACK 15 AUDIO TITLE "Show Me The Way" PERFORMER "Osmond Boys" INDEX 01 54:44:35 TRACK 16 AUDIO TITLE "I Wanna Be A Kennedy (Us Mix)" PERFORMER "Various Items" INDEX 01 58:30:60
Да не оскудеет рука нажавшего кнопку "Спасибо"
и оставшегося на раздаче!


[geo-torrent.biz]_t_5719793.torrent
Torrent: Registered ·  [ 2019-04-17 13:47 ] ·  90bb25d08eb1d123e8778ac39d8f7b8b1a3a193e

17 KB

Status: checked
Completed: 0 times
Size: 410 MB
Rating: 
(Votes: 0)
Say thanks: 0  Thanks
Похожие темы
[Profile]    [PM]
Display posts from previous:    
Reply to topic

The time now is: Today 11:20

All times are GMT + 7 Hours



You cannot post new topics in this forum
You cannot reply to topics in this forum
You cannot edit your posts in this forum
You cannot delete your posts in this forum
You cannot vote in polls in this forum
You cannot attach files in this forum
You can download files in this forum