(Top 40, Pop, Pop-Rock, Electronic, Hip Hop, House) [CD] VA - BRAVO Hits 6 (2CD) - 1994, FLAC (image+.cue), lossless

Reply to topic
DL-List and Torrent activity [Update пиров]
Size:  1.06 GB   |    Registered:  10 months 8 days   |    Completed:  0 times

Seeder not seen: Never

 
   
 
 
 
Author Message

Кейт

Post 13-Apr-2019 14:01

[Quote]

BRAVO Hits 6 Жанр: Top 40, Pop, Pop-Rock, Electronic, Hip Hop, House, Electro, Hip-House, Synthpop, Europop, R&B, Pop Rap, Latin, Euro House, Downtempo, Indie Rock, Punk
Носитель: CD
Страна-производитель диска: Germany
Год издания: 04.03.1994
Издатель: WEA
Номер по каталогу: 9548-32625-2
Аудиокодек: FLAC (*.flac)
Тип рипа: image+.cue
Продолжительность: 02:31:10
Источник: интернет
Наличие сканов в содержимом раздачи: да
Треклист:

CD1 01:14:14

01. Ace Of Base - The Sign
02. Prince Ital Joe Feat. Marky Mark - Happy People
03. Cappella - U Got 2 Let The Music
04. Dj Bobo - Take Control
05. Jam & Spoon Feat. Plavka - Right In The Night
06. Tag Team - Whoomp!
07. Culture Beat - Anything
08. M.C. Sar & The Real Mc Coy - Automatic Lover
09. Loft - Hold On
10. Magic Affair - Omen 3
11. Doop - Doop
12. Twenty 4 Seven - Is It Love
13. Technotronic - Hey Yoh, Here We Go
14. Maxx - Get-a-way
15. K7 - Come Baby Come
16. The Musketeers - All For Love
17. Deadly Sins - Come Down With Me
18. Kim Sanders - Tell Me What You Want Me
19. 2 Unlimited - Let The Beat Control Your Body
20. Helge Schneider - Katzeklo

CD2 01:16:56

01. Meat Loaf - Rock And Roll Dreams Come Through
02. D:Ream - Things Can Only Get Better
03. Enigma - Return To Innocence
04. Cinematic & Heinz Ruehmann - Unser Lied (Lalelu)
05. Janet Jackson - Again
06. Die Fantastischen Vier - Tag Am Meer
07. Bitty Mclean - Here I Stand
08. Right Said Fred - Hands Up
09. Snoop Doggy Dogg - What's My Name?
10. UB 40 - Bring Me Your Cup
11. Laura Pausini - Non C'e
12. OMD - Everyday
13. Wooden Heart - We Belong Together
14. Mr. Big - Nothing But Love
15. Stephan Massimo - Fever
16. Inspiral Carpets - Saturn 5
17. Depeche Mode - In Your Room
18. Nationalgalerie - Evelin
19. Scorpions - Partners In Crime
20. Chris Rea - Don't Turn Away

Лог создания рипа CD1

Exact Audio Copy V1.0 beta 1 from 15. November 2010
EAC extraction logfile from 10. November 2012, 11:55
Various / Bravo Hits 6 (CD1)
Used drive : PIONEER DVD-RW DVR-110D Adapter: 2 ID: 2
Read mode : SecureUtilize accurate stream : YesDefeat audio cache : YesMake use of C2 pointers : No
Read offset correction : 48Overread into Lead-In and Lead-Out : NoFill up missing offset samples with silence : YesDelete leading and trailing silent blocks : NoNull samples used in CRC calculations : YesUsed interface : Native Win32 interface for Win NT & 2000
Used output format : User Defined EncoderSelected bitrate : 768 kBit/sQuality : HighAdd ID3 tag : NoCommand line compressor : C:\Program Files\Exact Audio Copy\FLAC\FLAC.EXEAdditional command line options : -6 -V -T "ARTIST=%a" -T "TITLE=%t" -T "ALBUM=%g" -T "DATE=%y" -T "TRACKNUMBER=%n" -T "GENRE=%m" -T "COMMENT=%e" %j--picture="%i"%j %s -o %d
TOC of the extracted CD
Track | Start | Length | Start sector | End sector --------------------------------------------------------- 1 | 0:00.00 | 3:11.45 | 0 | 14369 2 | 3:11.45 | 3:49.57 | 14370 | 31601 3 | 7:01.27 | 3:33.65 | 31602 | 47641 4 | 10:35.17 | 3:45.70 | 47642 | 64586 5 | 14:21.12 | 3:48.18 | 64587 | 81704 6 | 18:09.30 | 3:45.10 | 81705 | 98589 7 | 21:54.40 | 3:57.67 | 98590 | 116431 8 | 25:52.32 | 3:48.68 | 116432 | 133599 9 | 29:41.25 | 3:41.25 | 133600 | 150199 10 | 33:22.50 | 3:58.25 | 150200 | 168074 11 | 37:21.00 | 3:09.10 | 168075 | 182259 12 | 40:30.10 | 3:58.37 | 182260 | 200146 13 | 44:28.47 | 3:54.43 | 200147 | 217739 14 | 48:23.15 | 3:46.45 | 217740 | 234734 15 | 52:09.60 | 3:58.52 | 234735 | 252636 16 | 56:08.37 | 3:34.43 | 252637 | 268729 17 | 59:43.05 | 3:32.35 | 268730 | 284664 18 | 63:15.40 | 4:13.30 | 284665 | 303669 19 | 67:28.70 | 3:40.62 | 303670 | 320231 20 | 71:09.57 | 3:04.47 | 320232 | 334078
Range status and errors
Selected range
Filename D:\rip.flacmusic.ru\Various - Bravo Hits 6 (CD1).wav
Peak level 100.0 % Extraction speed 0.3 X Range quality 100.0 % Test CRC 8C76ADEF Copy CRC 8C76ADEF Copy OK
No errors occurred
AccurateRip summary
Track 1 not present in databaseTrack 2 not present in databaseTrack 3 not present in databaseTrack 4 not present in databaseTrack 5 not present in databaseTrack 6 not present in databaseTrack 7 not present in databaseTrack 8 not present in databaseTrack 9 not present in databaseTrack 10 not present in databaseTrack 11 not present in databaseTrack 12 not present in databaseTrack 13 not present in databaseTrack 14 not present in databaseTrack 15 not present in databaseTrack 16 not present in databaseTrack 17 not present in databaseTrack 18 not present in databaseTrack 19 not present in databaseTrack 20 not present in database
None of the tracks are present in the AccurateRip database
End of status report
==== Log checksum 56962A994C8E7812D4F0534FB30BF003BBB50B9267649CF2711BF585D8E91ADC ====

Лог создания рипа CD2

Exact Audio Copy V1.0 beta 1 from 15. November 2010
EAC extraction logfile from 23. November 2012, 21:11
Various / Bravo Hits 6 (CD2)
Used drive : PIONEER DVD-RW DVR-110D Adapter: 2 ID: 2
Read mode : SecureUtilize accurate stream : YesDefeat audio cache : YesMake use of C2 pointers : No
Read offset correction : 48Overread into Lead-In and Lead-Out : NoFill up missing offset samples with silence : YesDelete leading and trailing silent blocks : NoNull samples used in CRC calculations : YesUsed interface : Native Win32 interface for Win NT & 2000
Used output format : User Defined EncoderSelected bitrate : 768 kBit/sQuality : HighAdd ID3 tag : NoCommand line compressor : C:\Program Files\Exact Audio Copy\FLAC\FLAC.EXEAdditional command line options : -6 -V -T "ARTIST=%a" -T "TITLE=%t" -T "ALBUM=%g" -T "DATE=%y" -T "TRACKNUMBER=%n" -T "GENRE=%m" -T "COMMENT=%e" %j--picture="%i"%j %s -o %d
TOC of the extracted CD
Track | Start | Length | Start sector | End sector --------------------------------------------------------- 1 | 0:00.00 | 5:10.62 | 0 | 23311 2 | 5:10.62 | 3:57.58 | 23312 | 41144 3 | 9:08.45 | 4:01.20 | 41145 | 59239 4 | 13:09.65 | 3:49.42 | 59240 | 76456 5 | 16:59.32 | 3:41.70 | 76457 | 93101 6 | 20:41.27 | 3:30.65 | 93102 | 108916 7 | 24:12.17 | 3:19.10 | 108917 | 123851 8 | 27:31.27 | 2:57.25 | 123852 | 137151 9 | 30:28.52 | 3:54.70 | 137152 | 154771 10 | 34:23.47 | 5:08.10 | 154772 | 177881 11 | 39:31.57 | 3:51.68 | 177882 | 195274 12 | 43:23.50 | 3:46.12 | 195275 | 212236 13 | 47:09.62 | 3:25.60 | 212237 | 227671 14 | 50:35.47 | 3:30.15 | 227672 | 243436 15 | 54:05.62 | 3:02.50 | 243437 | 257136 16 | 57:08.37 | 3:52.00 | 257137 | 274536 17 | 61:00.37 | 4:32.20 | 274537 | 294956 18 | 65:32.57 | 3:39.63 | 294957 | 311444 19 | 69:12.45 | 4:21.35 | 311445 | 331054 20 | 73:34.05 | 3:22.12 | 331055 | 346216
Range status and errors
Selected range
Filename D:\rip.flacmusic.ru\Various - Bravo Hits 6 (CD2).wav
Peak level 100.0 % Extraction speed 0.3 X Range quality 100.0 % Test CRC 50DCA618 Copy CRC 50DCA618 Copy OK
No errors occurred
AccurateRip summary
Track 1 not present in databaseTrack 2 not present in databaseTrack 3 not present in databaseTrack 4 not present in databaseTrack 5 not present in databaseTrack 6 not present in databaseTrack 7 not present in databaseTrack 8 not present in databaseTrack 9 not present in databaseTrack 10 not present in databaseTrack 11 not present in databaseTrack 12 not present in databaseTrack 13 not present in databaseTrack 14 not present in databaseTrack 15 not present in databaseTrack 16 not present in databaseTrack 17 not present in databaseTrack 18 not present in databaseTrack 19 not present in databaseTrack 20 not present in database
None of the tracks are present in the AccurateRip database
End of status report
==== Log checksum 657D3DC95555C01568AA324D85F1CDEECE16A779E05FACB24657ACF78AC52568 ====

Содержание индексной карты (.CUE) CD1

REM GENRE Pop/Rock*REM DATE 1994REM DISCID 08116614REM COMMENT "ExactAudioCopy v1.0b1"PERFORMER "Various"TITLE "Bravo Hits (1994) Vol.6 (CD 1)"FILE "Bravo Hits (1994) Vol.6 (CD 1).flac" WAVE TRACK 01 AUDIO TITLE "The Sign (Radio Edit)" PERFORMER "Ace Of Base" INDEX 01 00:00:00 TRACK 02 AUDIO TITLE "Happy People" PERFORMER "Prince Ital Joe Feat. Marky Mark" INDEX 01 03:11:45 TRACK 03 AUDIO TITLE "U Got 2 Let The Music" PERFORMER "Cappella" INDEX 01 07:01:27 TRACK 04 AUDIO TITLE "Take Control" PERFORMER "DJ Bobo" INDEX 01 10:35:17 TRACK 05 AUDIO TITLE "Right In The Night (Fall In Love With Music)" PERFORMER "Jam & Spoon Feat. Plavka" INDEX 01 14:21:12 TRACK 06 AUDIO TITLE "Whoomp! (There It Is)" PERFORMER "Tag Team" INDEX 01 18:09:30 TRACK 07 AUDIO TITLE "Anything" PERFORMER "Culture Beat" INDEX 01 21:54:40 TRACK 08 AUDIO TITLE "Automatic Lover (Call For Love)" PERFORMER "M.C. Sar & The Real McCoy" INDEX 01 25:52:32 TRACK 09 AUDIO TITLE "Hold On" PERFORMER "Loft" INDEX 01 29:41:25 TRACK 10 AUDIO TITLE "Omen III" PERFORMER "Magic Affair" INDEX 01 33:22:50 TRACK 11 AUDIO TITLE "Doop" PERFORMER "Doop (Sidney Berlin Ragtime Band)" INDEX 01 37:21:00 TRACK 12 AUDIO TITLE "Is It Love" PERFORMER "Twenty 4 Seven" INDEX 01 40:30:10 TRACK 13 AUDIO TITLE "Hey Yoh, Here We Go" PERFORMER "Technotronic" INDEX 01 44:28:47 TRACK 14 AUDIO TITLE "Get-A-Way (Airplay Mix)" PERFORMER "Maxx" INDEX 01 48:23:15 TRACK 15 AUDIO TITLE "Come Baby Come" PERFORMER "K7" INDEX 01 52:09:60 TRACK 16 AUDIO TITLE "All For Love (Dance Version)" PERFORMER "The Musketeers" INDEX 01 56:08:37 TRACK 17 AUDIO TITLE "Come Down With Me" PERFORMER "Deadly Sins" INDEX 01 59:43:05 TRACK 18 AUDIO TITLE "Tell Me That You Want Me" PERFORMER "Kim Sanders" INDEX 01 63:15:40 TRACK 19 AUDIO TITLE "Let The Beat Control Your Body" PERFORMER "2 Unlimited" INDEX 01 67:28:70 TRACK 20 AUDIO TITLE "Katzeklo" PERFORMER "Helge Schneider" INDEX 01 71:09:57

Содержание индексной карты (.CUE) CD2

REM GENRE PopREM DATE 1994REM DISCID F9120814REM COMMENT "ExactAudioCopy v1.0b1"PERFORMER "Various"TITLE "Bravo Hits (1994) Vol.6 (CD 2)"FILE "Bravo Hits (1994) Vol.6 (CD 2).flac" WAVE TRACK 01 AUDIO TITLE "Rock And Roll Dreams Come Through" PERFORMER "Meat Loaf" INDEX 01 00:00:00 TRACK 02 AUDIO TITLE "Things Can Only Get Better" PERFORMER "D:Ream" INDEX 01 05:10:62 TRACK 03 AUDIO TITLE "Return To Innocence" PERFORMER "Enigma" INDEX 01 09:08:45 TRACK 04 AUDIO TITLE "Unser Lied (LaLeLu)" PERFORMER "Cinematic & Heinz Ruhmann & Oliver Grimm" INDEX 01 13:09:65 TRACK 05 AUDIO TITLE "Again" PERFORMER "Janet Jackson" INDEX 01 16:59:32 TRACK 06 AUDIO TITLE "Tag Am Meer" PERFORMER "Die Fantastischen Vier" INDEX 01 20:41:27 TRACK 07 AUDIO TITLE "Here I Stand" PERFORMER "Bitty McLean" INDEX 01 24:12:17 TRACK 08 AUDIO TITLE "Hands Up (4 Lovers)" PERFORMER "Right Said Fred" INDEX 01 27:31:27 TRACK 09 AUDIO TITLE "What's My Name?" PERFORMER "Snoop Doggy Dogg" INDEX 01 30:28:52 TRACK 10 AUDIO TITLE "Bring Me Your Cup" PERFORMER "UB 40" INDEX 01 34:23:47 TRACK 11 AUDIO TITLE "Non C'e" PERFORMER "Laura Pausini" INDEX 01 39:31:57 TRACK 12 AUDIO TITLE "Everyday" PERFORMER "Orchestral Manoeuvres In The Dark" INDEX 01 43:23:50 TRACK 13 AUDIO TITLE "We Belong Together" PERFORMER "Wooden Heart" INDEX 01 47:09:62 TRACK 14 AUDIO TITLE "Nothing But Love" PERFORMER "Mr. Big" INDEX 01 50:35:47 TRACK 15 AUDIO TITLE "Fever" PERFORMER "Stephan Massimo" INDEX 01 54:05:62 TRACK 16 AUDIO TITLE "Saturn 5 (Hi-Energy Mix)" PERFORMER "Inspiral Carpets" INDEX 01 57:08:37 TRACK 17 AUDIO TITLE "In Your Room (Zephir Mix)" PERFORMER "Depeche Mode" INDEX 01 61:00:37 TRACK 18 AUDIO TITLE "Evelin" PERFORMER "Nationalgalerie" INDEX 01 65:32:57 TRACK 19 AUDIO TITLE "Partners In Crime" PERFORMER "Scorpions" INDEX 01 69:12:45 TRACK 20 AUDIO TITLE "Don't Turn Away" PERFORMER "Chris Rea" INDEX 01 73:34:05
Да не оскудеет рука нажавшего кнопку "Спасибо"
и оставшегося на раздаче!


[geo-torrent.biz]_t_5717730.torrent
Torrent: Registered ·  [ 2019-04-13 14:01 ] ·  0f1f8852f4dbeb2395ffbb8b01730a5d604ef2da

12 KB

Status: checked
Completed: 0 times
Size: 1.06 GB
Rating: 
(Votes: 0)
Say thanks: 0  Thanks
Похожие темы
[Profile]    [PM]
Display posts from previous:    
Reply to topic

The time now is: Today 19:17

All times are GMT + 7 Hours



You cannot post new topics in this forum
You cannot reply to topics in this forum
You cannot edit your posts in this forum
You cannot delete your posts in this forum
You cannot vote in polls in this forum
You cannot attach files in this forum
You can download files in this forum