(Top 40, Pop, Pop-Rock, Electronic, Hip Hop, House) [CD] VA - BRAVO Hits 20 (2CD) - 1998, FLAC (image+.cue), lossless

Reply to topic
DL-List and Torrent activity [Update пиров]
Size:  1.03 GB   |    Registered:  10 months 9 days   |    Completed:  0 times

Seeder not seen: Never

 
   
 
 
 
Author Message

Кейт

Post 12-Apr-2019 13:53

[Quote]

BRAVO Hits 20 Жанр: Top 40, Pop, Pop-Rock, Electronic, Hip Hop, House, Electro, Hip-House, Synthpop, Europop, R&B, Pop Rap, Latin, Euro House, Downtempo, Indie Rock, Punk
Носитель: CD
Страна-производитель диска: Germany
Год издания: 02.03.1998
Издатель: WSM
Номер по каталогу: 9548-36273-2
Аудиокодек: FLAC (*.flac)
Тип рипа: image+.cue
Битрейт аудио: lossless
Продолжительность: 02:31:41
Источник: интернет
Наличие сканов в содержимом раздачи: да
Треклист:

CD1 01:17:28

01. Janet Jackson - Together Again
02. Natalie Imbruglia - Torn
03. Espen Lind - When Susanna Cries
04. The Kelly Family - One More Song
05. Savage Garden - To The Moon & Back
06. Young Deenay - Walk On By
07. R'n'g - Open Your Mind
08. Hausmarke - Maedchen No. 1
09. Deborah - On Court Toujours
10. Spice Girls - Too Much
11. Something For The People - My Love Is The Shhh
12. Solid Harmonie - I'll Be There For You
13. Trey D. - Mirror Mirror
14. Dru Hill - In My Bed
15. Down Low - Hit Me Right
16. Flip Da Scrip - I Never Told You
17. Sabrina Setlur Introducing Xavier Naidoo - Freisein
18. Basis - Ich Liebe Mich
19. Fuenf Sterne Deluxe - Willsts Du Mit Mir Geh'n?
20. Era - Ameno

CD2 01:14:13

01. Backstreet Boys - All I Have To Give
02. Robbie Williams - Angels
03. Aaron Carter - I'm Gonna Miss You Forever
04. 5 Ny - Finally
05. Aqua - Doctor Jones
06. No Authoritiy - Don't Stop
07. El Paso - Matadot
08. Bamboo - Bamboogi
09. N.Y.C.C. - Fight For Your Right (To Party)
10. Smax - Wee Want Some P...!
11. Grove Gangsta - Funky Beats
12. Paraplyzer - Bib Bib, Bob You Don't Stop The Rocking To The Dang
13. Westbam - Crash Course
14. Kai Tracid - Your Own Reality
15. Blank & Jones - Heart Beat
16. Dj Disco - Stamp Your Feet
17. Orinoko - Mama Konda
18. Jungle Kids - Back To The Jungle
19. Guano Apes - Open Your Eyes
20. Die Toten Hosen - Pushed Again

Лог создания рипа CD1

Exact Audio Copy V1.0 beta 3 from 29. August 2011
EAC extraction logfile from 16. March 2019, 12:30
Various / Bravo Hits 20 - CD1
Used drive : ARIL IBO5IVCX Adapter: 2 ID: 0
Read mode : Burst
Read offset correction : 0Overread into Lead-In and Lead-Out : NoFill up missing offset samples with silence : YesDelete leading and trailing silent blocks : NoNull samples used in CRC calculations : YesUsed interface : Native Win32 interface for Win NT & 2000
Used output format : Internal WAV RoutinesSample format : 44.100 Hz; 16 Bit; Stereo
TOC of the extracted CD
Track | Start | Length | Start sector | End sector --------------------------------------------------------- 1 | 0:00.00 | 4:09.72 | 0 | 18746 2 | 4:09.72 | 4:06.39 | 18747 | 37235 3 | 8:16.36 | 3:38.57 | 37236 | 53642 4 | 11:55.18 | 4:18.66 | 53643 | 73058 5 | 16:14.09 | 4:15.64 | 73059 | 92247 6 | 20:29.73 | 3:35.22 | 92248 | 108394 7 | 24:05.20 | 3:54.04 | 108395 | 125948 8 | 27:59.24 | 3:58.04 | 125949 | 143802 9 | 31:57.28 | 4:01.01 | 143803 | 161878 10 | 35:58.29 | 3:51.54 | 161879 | 179257 11 | 39:50.08 | 4:19.37 | 179258 | 198719 12 | 44:09.45 | 3:11.21 | 198720 | 213065 13 | 47:20.66 | 3:32.33 | 213066 | 228998 14 | 50:53.24 | 4:03.72 | 228999 | 247295 15 | 54:57.21 | 3:35.39 | 247296 | 263459 16 | 58:32.60 | 4:00.19 | 263460 | 281478 17 | 62:33.04 | 3:35.54 | 281479 | 297657 18 | 66:08.58 | 3:34.54 | 297658 | 313761 19 | 69:43.37 | 3:57.00 | 313762 | 331536 20 | 73:40.37 | 3:47.27 | 331537 | 348588
Range status and errors
Selected range
Filename C:\Users\Roman\Desktop\Various - Bravo Hits 20 - CD1.wav
Peak level 98.8 % Extraction speed 223.9 X Test CRC F423D0B9 Copy CRC F423D0B9 Copy OK
No errors occurred
End of status report
==== Log checksum 4E67D7D940691580753A257B141D63A703AC16CAADF5331602776C56F2C3E859 ====

Лог создания рипа CD2

Exact Audio Copy V1.0 beta 3 from 29. August 2011
EAC extraction logfile from 16. March 2019, 12:31
Various / Bravo Hits 20 (CD 2)
Used drive : ARIL IBO5IVCX Adapter: 2 ID: 0
Read mode : Burst
Read offset correction : 0Overread into Lead-In and Lead-Out : NoFill up missing offset samples with silence : YesDelete leading and trailing silent blocks : NoNull samples used in CRC calculations : YesUsed interface : Native Win32 interface for Win NT & 2000
Used output format : Internal WAV RoutinesSample format : 44.100 Hz; 16 Bit; Stereo
TOC of the extracted CD
Track | Start | Length | Start sector | End sector --------------------------------------------------------- 1 | 0:00.00 | 4:05.57 | 0 | 18431 2 | 4:05.57 | 4:25.03 | 18432 | 38309 3 | 8:30.60 | 3:37.30 | 38310 | 54614 4 | 12:08.15 | 4:02.21 | 54615 | 72785 5 | 16:10.36 | 3:22.69 | 72786 | 88004 6 | 19:33.30 | 3:43.67 | 88005 | 104796 7 | 23:17.22 | 3:19.00 | 104797 | 119721 8 | 26:36.22 | 3:32.64 | 119722 | 135685 9 | 30:09.11 | 3:24.15 | 135686 | 151000 10 | 33:33.26 | 3:17.15 | 151001 | 165790 11 | 36:50.41 | 3:48.39 | 165791 | 182929 12 | 40:39.05 | 3:31.04 | 182930 | 198758 13 | 44:10.09 | 3:55.49 | 198759 | 216432 14 | 48:05.58 | 3:48.04 | 216433 | 233536 15 | 51:53.62 | 3:30.12 | 233537 | 249298 16 | 55:23.74 | 3:45.12 | 249299 | 266185 17 | 59:09.11 | 4:07.39 | 266186 | 284749 18 | 63:16.50 | 3:55.66 | 284750 | 302440 19 | 67:12.41 | 3:08.27 | 302441 | 316567 20 | 70:20.68 | 3:52.12 | 316568 | 333979
Range status and errors
Selected range
Filename C:\Users\Roman\Desktop\Various - Bravo Hits 20 (CD 2).wav
Peak level 98.8 % Extraction speed 256.5 X Test CRC 863AD15E Copy CRC 863AD15E Copy finished
No errors occurred
End of status report
==== Log checksum 85FD69FB5547A366BDBDAE2FC6E0516F841E33D1B8E4D8243D44EC6DCC822577 ====

Содержание индексной карты (.CUE) CD1

REM ACCURATERIPID 0038bf2c-033c3433-2f122814REM COMMENT "CUETools generated dummy CUE sheet"REM TOTALDISCS 1REM DISCNUMBER 1REM DATE 1998REM GENRE "Pop"PERFORMER ""TITLE "Bravo Hits Vol.20 (CD 1)"FILE "Bravo Hits (1998) Vol.20 (CD 1).flac" WAVE TRACK 01 AUDIO TITLE "Together Again" PERFORMER "Janet Jackson" INDEX 01 00:00:00 TRACK 02 AUDIO TITLE "Torn" PERFORMER "Natalie Imbruglia" INDEX 01 04:09:72 TRACK 03 AUDIO TITLE "When Susannah Cries" PERFORMER "Espen Lind" INDEX 01 08:16:37 TRACK 04 AUDIO TITLE "One More Song" PERFORMER "The Kelly Family" INDEX 01 11:55:20 TRACK 05 AUDIO TITLE "To The Moon & Back" PERFORMER "Savage Garden" INDEX 01 16:14:12 TRACK 06 AUDIO TITLE "Walk On By" PERFORMER "Young Deenay" INDEX 01 20:30:02 TRACK 07 AUDIO TITLE "Open Your Mind" PERFORMER "R'N'G" INDEX 01 24:05:25 TRACK 08 AUDIO TITLE "Madchen No. 1" PERFORMER "Hausmarke" INDEX 01 27:59:30 TRACK 09 AUDIO TITLE "On Court Toujours" PERFORMER "Déborah" INDEX 01 31:57:35 TRACK 10 AUDIO TITLE "Too Much" PERFORMER "Spice Girls" INDEX 01 35:58:37 TRACK 11 AUDIO TITLE "My Love Is The Shhh!" PERFORMER "Something For The People Feat. Trina & Tamara" INDEX 01 39:50:17 TRACK 12 AUDIO TITLE "I'll Be There For You" PERFORMER "Solid Harmonie" INDEX 01 44:09:55 TRACK 13 AUDIO TITLE "Mirror Mirror" PERFORMER "Trey D." INDEX 01 47:21:02 TRACK 14 AUDIO TITLE "In My Bed" PERFORMER "Dru Hill" INDEX 01 50:53:35 TRACK 15 AUDIO TITLE "Hit Me Right" PERFORMER "Down Low" INDEX 01 54:57:32 TRACK 16 AUDIO TITLE "I Never Told You" PERFORMER "Flip Da Scrip" INDEX 01 58:32:72 TRACK 17 AUDIO TITLE "Freisein" PERFORMER "Sabrina Setlur Introducing Xavier Naidoo" INDEX 01 62:33:17 TRACK 18 AUDIO TITLE "Ich Liebe Mich" PERFORMER "Basis" INDEX 01 66:08:72 TRACK 19 AUDIO TITLE "Willst Du Mit Mir Geh'n" PERFORMER "Funf Sterne Deluxe" INDEX 01 69:43:52 TRACK 20 AUDIO TITLE "Ameno (Remix)" PERFORMER "Era" INDEX 01 73:40:52

Содержание индексной карты (.CUE) CD2

REM ACCURATERIPID 0035ed39-0312a328-13116514REM COMMENT "CUETools generated dummy CUE sheet"REM TOTALDISCS 1REM DISCNUMBER 1REM DATE 1998REM GENRE "Pop"PERFORMER ""TITLE "Bravo Hits Vol.20 (CD 2)"FILE "Bravo Hits (1998) Vol.20 (CD 2).flac" WAVE TRACK 01 AUDIO TITLE "All I Have To Give (Radio Version)" PERFORMER "Backstreet Boys" INDEX 01 00:00:00 TRACK 02 AUDIO TITLE "Angels (5'' Version)" PERFORMER "Robbie Williams" INDEX 01 04:05:57 TRACK 03 AUDIO TITLE "I'm Gonna Miss You Forever (Radio Edit)" PERFORMER "Aaron Carter" INDEX 01 08:30:60 TRACK 04 AUDIO TITLE "Finally (Single Mix)" PERFORMER "5 NY" INDEX 01 12:08:15 TRACK 05 AUDIO TITLE "Doctor Jones (Metro's 7'' Edit)" PERFORMER "Aqua" INDEX 01 16:10:37 TRACK 06 AUDIO TITLE "Don't Stop (Radio Edit)" PERFORMER "No Authority" INDEX 01 19:33:32 TRACK 07 AUDIO TITLE "Matador (Single Mix)" PERFORMER "El Paso" INDEX 01 23:17:25 TRACK 08 AUDIO TITLE "Bamboogi (Radio Edit)" PERFORMER "Bamboo" INDEX 01 26:36:25 TRACK 09 AUDIO TITLE "Fight For Your Right (To Party) (Single Version)" PERFORMER "N.Y.C.C." INDEX 01 30:09:15 TRACK 10 AUDIO TITLE "We Want Some Pussy! (Video Radio Edit)" PERFORMER "Smax" INDEX 01 33:33:30 TRACK 11 AUDIO TITLE "Funky Beats (Radio Edit)" PERFORMER "Groove Gangsters" INDEX 01 36:50:45 TRACK 12 AUDIO TITLE "Bip Bip Bop You Don't Stop The Rockin' To The Dang Dang Boogie Say Up Join The Boogie The Beat Don't Stop Til The Freaks Are Gone (Radio Edit)" PERFORMER "Paralyzer" INDEX 01 40:39:10 TRACK 13 AUDIO TITLE "Crash Course (Short Cut)" PERFORMER "Westbam" INDEX 01 44:10:15 TRACK 14 AUDIO TITLE "Your Own Reality (Single Mix)" PERFORMER "Kai Tracid" INDEX 01 48:05:65 TRACK 15 AUDIO TITLE "Heartbeat (Radio Mix)" PERFORMER "Blank & Jones" INDEX 01 51:53:70 TRACK 16 AUDIO TITLE "Stamp Your Feet (Radio Edit)" PERFORMER "DJ Disco" INDEX 01 55:24:07 TRACK 17 AUDIO TITLE "Mama Konda (Original Radio Edit)" PERFORMER "Orinoko" INDEX 01 59:09:20 TRACK 18 AUDIO TITLE "Back To The Jungle (Radio Video Mix)" PERFORMER "Jungle Kids" INDEX 01 63:16:60 TRACK 19 AUDIO TITLE "Open Your Eyes (5'' Version)" PERFORMER "Guano Apes" INDEX 01 67:12:52 TRACK 20 AUDIO TITLE "Pushed Again (5'' Version)" PERFORMER "Die Toten Hosen" INDEX 01 70:21:05
Да не оскудеет рука нажавшего кнопку "Спасибо"
и оставшегося на раздаче!


[geo-torrent.biz]_t_5716962.torrent
Torrent: Registered ·  [ 2019-04-12 13:53 ] ·  20dfd53ef4ace77a9f4b13f27124fc2a9dd20f5f

12 KB

Status: checked
Completed: 0 times
Size: 1.03 GB
Rating: 
(Votes: 0)
Say thanks: 0  Thanks
Похожие темы
[Profile]    [PM]
Display posts from previous:    
Reply to topic

The time now is: Today 19:25

All times are GMT + 7 Hours



You cannot post new topics in this forum
You cannot reply to topics in this forum
You cannot edit your posts in this forum
You cannot delete your posts in this forum
You cannot vote in polls in this forum
You cannot attach files in this forum
You can download files in this forum