(Black Metal / Viking Metal) [CD] Enslaved - Yggdrasill - 1992, (Reissue 2012), FLAC (image+.cue), lossless

Reply to topic
DL-List and Torrent activity [Update пиров]
Size:  276 MB   |    Registered:  8 months   |    Completed:  0 times

Seeder not seen: Never

 
   
 
 
 
Author Message

Генри

Post 20-Mar-2019 02:41

[Quote]

Enslaved - 1992 - Yggdrasill
Жанр: Black Metal / Viking Metal
Носитель: CD
Страна-производитель диска (релиза): UK
Год издания: 2012
Издатель (лейбл): Peaceville
Номер по каталогу: cdviled356
Страна исполнителя (группы): Norway
Аудиокодек: FLAC (*.flac)
Тип рипа: image+.cue
Битрейт аудио: lossless
Продолжительность: 40:22
Источник: собственный рип
Наличие сканов в содержимом раздачи: да
Треклист:
1 Heimdallr 6:41
2 Allfǫðr Oðinn 7:51
3 Hal Valr 9:00
4 Niunda Heim 7:39
5 Resound Of Gjallarhorn 3:14
6 Enslaved (Bonus Track) 6:08

Лог создания рипа

Exact Audio Copy V1.0 beta 4 from 7. December 2014
Отчёт EAC об извлечении, выполненном 18. марта 2019, 18:39
Enslaved / Yggdrasill
Дисковод: PIONEER BD-RW BDR-207D Adapter: 1 ID: 0
Режим чтения : ДостоверностьИспользование точного потока : ДаОтключение кэша аудио : ДаИспользование указателей C2 : Нет
Коррекция смещения при чтении : 667Способность читать области Lead-in и Lead-out : НетЗаполнение пропущенных сэмплов тишиной : ДаУдаление блоков с тишиной в начале и конце : НетПри вычислениях CRC использовались нулевые сэмплы : ДаИнтерфейс : Встроенный Win32-интерфейс для Win NT/2000
Выходной формат : Пользовательский кодировщикВыбранный битрейт : 1024 kBit/sКачество : ВысокийДобавление ID3-тега : НетУтилита сжатия : C:\Program Files (x86)\Exact Audio Copy\Flac\flac.exeДополнительные параметры : -V -8 -T "Date=%year%" -T "Genre=%genre%" %source%
TOC извлечённого CD
Трек | Старт | Длительность | Начальный сектор | Конечный сектор --------------------------------------------------------------------- 1 | 0:00.00 | 6:35.69 | 0 | 29693 2 | 6:35.69 | 7:51.40 | 29694 | 65058 3 | 14:27.34 | 9:01.27 | 65059 | 105660 4 | 23:28.61 | 7:35.20 | 105661 | 139805 5 | 31:04.06 | 3:10.39 | 139806 | 154094 6 | 34:14.45 | 6:08.24 | 154095 | 181718
Характеристики диапазона извлечения и сообщения об ошибках
Выбранный диапазон
Имя файла F:\BFM\Enslaved - Yggdrasill\Enslaved - Yggdrasill.wav
Пиковый уровень 92.3 % Скорость извлечения 6.8 X Качество диапазона 100.0 % CRC теста 0D61151E CRC копии 0D61151E Копирование... OK
Ошибок не произошло
AccurateRip: сводка
Трек 1 : извлечено точно (доверие 14) [1A6580A5] (AR v2)Трек 2 : извлечено точно (доверие 14) [AD6D61F2] (AR v2)Трек 3 : извлечено точно (доверие 14) [7A2114A1] (AR v2)Трек 4 : извлечено точно (доверие 13) [AB5C093D] (AR v2)Трек 5 : извлечено точно (доверие 14) [BCE653D8] (AR v2)Трек 6 : извлечено точно (доверие 13) [00DB4A99] (AR v2)
Все треки извлечены точно
Конец отчёта
==== Контрольная сумма отчёта 4F05E4F23623DAC29386C2CCCF1C053AA0ED29FA5DB27A7D5BB13151145CC427 ====

Об альбоме (сборнике)

http://www.metal-archives.com/albums/Enslaved/Yggdrasill/418181

Состав

Earl Grutle - Vocals, Bass
HM Daimonion - Guitars, Vocals, Keyboards
Trym, Lord Of Mayhem - Drums, Percussion


[geo-torrent.biz]_t_5706139.torrent
Torrent: Registered ·  [ 2019-03-20 02:40 ] ·  a9a9fe76d876536f998d3d7d79d0e573580eb2bb

12 KB

Status: checked
Completed: 0 times
Size: 276 MB
Rating: 
(Votes: 0)
Say thanks: 0  Thanks
Похожие темы
[Profile]    [PM]
Display posts from previous:    
Reply to topic

The time now is: Today 14:25

All times are GMT + 7 Hours



You cannot post new topics in this forum
You cannot reply to topics in this forum
You cannot edit your posts in this forum
You cannot delete your posts in this forum
You cannot vote in polls in this forum
You cannot attach files in this forum
You can download files in this forum