Британия / Britannia / Сезон: 1 / Серии: 1-9 из 9 (Люк Уотсон, Роб Сэвадж, Шери Фоксон) [2017, Великобритания, США, фэнтези, боевик, драма, HDRip] MVO (TVShows)

Ответить на тему
Статистика раздачи [Обновить пиров]
Размер:  7.03 GB   |    Зарегистрирован:  10 дней   |    Скачан:  0 раз

Полного источника не было: Никогда

 
   
 
 
 
Автор Сообщение

-warx-

Создавать темы 15-Мар-2019 11:50

[Цитировать]

Британия | Britannia- Год выхода: 2017
Страна: Великобритания, США
Жанр: фэнтези, боевик, драма
Продолжительность: ~ 00:45:00
Перевод: Любительский (многоголосый закадровый) TVShows--Режиссёр: Люк Уотсон, Роб Сэвадж, Шери Фоксон
В ролях: Элинор Вортингтон-Кокс, Дэвид Моррисси, Келли Райлли, Николай Ли Каас, Лиана Корнелл, Гершвин Эсташ мл., Макензи Крук, Бэрри Уорд, Стэнли Вебер, Джо Армстронг и др.-Описание: События сериала происходят в начале новой эры, когда Британия была населена очень воинственными кельтскими племенами, которые были не готовы перейти под управление иноземцев, пришедших с далекого юга. Во время римского завоевания Британии две враждующие кельтские воительницы — Керра и Антедия — вынуждены объединить силы, чтобы дать отпор римским легионам под предводительством Авла Плавтия.--
Качество: HDRip (BDRip 720p TVShows)
Формат файла: AVI
Видео: XVID, 720x400, 25.000 fps, 2000 kbps avg, 0.278 bit/pixel
Аудио Rus: AC3, 48.0 KHz, 6 channels, 384 kbps
Субтитры: нет
Реклама отсутствует
[url=tracker.php?g=foreign_serials&nm=Britannia]Все раздачи сериала[/url]

MediaInfo

General
Complete name : G:\Британия (Сезон 1) TVShows\Britannia.S01E01.HDRip.RGzs.Celta88.avi
Format : AVI
Format/Info : Audio Video Interleave
File size : 1.16 GiB
Duration : 1 h 9 min
Overall bit rate : 2 394 kb/s
Writing application : VirtualDubMod 1.5.10.3 | www.virtualdub-fr.org || (build 2550/release)
Writing library : VirtualDubMod build 2550/release
Video
ID : 0
Format : MPEG-4 Visual
Format profile : Advanced Simple@L5
Format settings, BVOP : 1
Format settings, QPel : No
Format settings, GMC : No warppoints
Format settings, Matrix : Custom
Codec ID : XVID
Codec ID/Hint : XviD
Duration : 1 h 9 min
Bit rate : 2 000 kb/s
Width : 720 pixels
Height : 400 pixels
Display aspect ratio : 16:9
Frame rate : 25.000 FPS
Color space : YUV
Chroma subsampling : 4:2:0
Bit depth : 8 bits
Scan type : Progressive
Compression mode : Lossy
Bits/(Pixel*Frame) : 0.278
Stream size : 996 MiB (84%)
Writing library : XviD 73
Audio
ID : 1
Format : AC-3
Format/Info : Audio Coding 3
Mode extension : CM (complete main)
Format settings, Endianness : Big
Codec ID : 2000
Duration : 1 h 9 min
Bit rate mode : Constant
Bit rate : 384 kb/s
Channel(s) : 6 channels
Channel positions : Front: L C R, Side: L R, LFE
Sampling rate : 48.0 kHz
Frame rate : 31.250 FPS (1536 spf)
Bit depth : 16 bits
Compression mode : Lossy
Stream size : 191 MiB (16%)
Alignment : Split accross interleaves
Interleave, duration : 40 ms (1.00 video frame)
Interleave, preload duratio : 500 ms

Скриншоты



[torrentc.info]_t_5698973.torrent
Торрент: Зарегистрирован ·  [ 2019-03-15 11:50 ] ·  b36f0e6c1da55f1ff79581073e4858c719aa975e

36 KB

Статус: проверено
Скачан: 0 раз
Размер: 7.03 GB
Оценка: 
(Голосов: 0)
Сказали спасибо: 0  Спасибо
Похожие темы
[Профиль]    [ЛС]
Показать сообщения:    
Ответить на тему

Текущее время: Сегодня 15:06

Часовой пояс: GMT + 7



Вы не можете начинать темы
Вы не можете отвечать на сообщения
Вы не можете редактировать свои сообщения
Вы не можете удалять свои сообщения
Вы не можете голосовать в опросах
Вы не можете прикреплять файлы к сообщениям
Вы можете скачивать файлы