Тайная власть / Deep State / Сезон: 1 / Серии: 1-8 из 8 (Роберт Коннолли, Мэттью Паркхилл) [2018, Великобритания, боевик, триллер, драма, WEB-DLRip] MVO (FOX)

Ответить на тему
Статистика раздачи [Обновить пиров]
Размер:  6.15 GB   |    Зарегистрирован:  10 дней   |    Скачан:  0 раз

Полного источника не было: Никогда

 
   
 
 
 
Автор Сообщение

Mr_Fox

Создавать темы 15-Мар-2019 11:50

[Цитировать]

Тайная власть | Deep State- Год выхода: 2018
Страна: Великобритания
Жанр: боевик, триллер, драма
Продолжительность: ~ 00:50:00
Перевод: Профессиональный (многоголосый закадровый) FOX--Режиссёр: Роберт Коннолли, Мэттью Паркхилл
В ролях: Марк Стронг, Джозеф Демпси, Карима МакАдамс, Лайн Рени, Анастасия Гриффит, Алистэр Петри, Амелия Баллмор, Кингсли Бен-Адир, Зубин Варла, Мел Райдо и др.-Описание: Действие сериала развивается вокруг Макса Истона, бывшего спецагента, вынужденного вернуться на службу, чтобы отомстить за смерть своего сына. Он окажется в самом центре тайной войны, которую ведут спецслужбы, и заговора, нацеленного на то, чтобы извлечь максимальную прибыль от распространения хаоса на Ближнем Востоке. Эта история ставит вопрос, можем ли мы убежать от своего прошлого? Действительно ли существует такая вещь, как второй шанс?--
Качество: WEB-DLRip
Формат файла: AVI
Видео: XVID, 704x352, 25.000 fps, ~2000 kbps avg, ~0.32 bit/pixel
Аудио Rus: AC3, 48.0 KHz, 2 channels, 192 kbps
Субтитры: нет
Реклама отсутствует
[url=tracker.php?g=foreign_serials&nm=Deep+State]Все раздачи сериала[/url]

MediaInfo

General
Complete name : G:\Тайная власть (Сезон 1) FOX\Deep.State.S01E01.WEB-DLRip.RGzs.Celta88.avi
Format : AVI
Format/Info : Audio Video Interleave
File size : 800 MiB
Duration : 50 min 46 s
Overall bit rate : 2 202 kb/s
Writing application : VirtualDubMod 1.5.10.2 (build 2540/release)
Writing library : VirtualDubMod build 2540/release
Video
ID : 0
Format : MPEG-4 Visual
Format profile : Advanced Simple@L5
Format settings, BVOP : 1
Format settings, QPel : No
Format settings, GMC : No warppoints
Format settings, Matrix : Custom
Codec ID : XVID
Codec ID/Hint : XviD
Duration : 50 min 46 s
Bit rate : 2 000 kb/s
Width : 704 pixels
Height : 352 pixels
Display aspect ratio : 2.000
Frame rate : 25.000 FPS
Color space : YUV
Chroma subsampling : 4:2:0
Bit depth : 8 bits
Scan type : Progressive
Compression mode : Lossy
Bits/(Pixel*Frame) : 0.323
Stream size : 726 MiB (91%)
Writing library : XviD 73
Audio
ID : 1
Format : AC-3
Format/Info : Audio Coding 3
Mode extension : CM (complete main)
Format settings, Endianness : Big
Codec ID : 2000
Duration : 50 min 46 s
Bit rate mode : Constant
Bit rate : 192 kb/s
Channel(s) : 2 channels
Channel positions : Front: L R
Sampling rate : 48.0 kHz
Frame rate : 31.250 FPS (1536 spf)
Bit depth : 16 bits
Compression mode : Lossy
Stream size : 69.7 MiB (9%)
Alignment : Split accross interleaves
Interleave, duration : 40 ms (1.00 video frame)
Interleave, preload duratio : 500 ms

Скриншоты



[torrentc.info]_t_5699002.torrent
Торрент: Зарегистрирован ·  [ 2019-03-15 11:50 ] ·  960c9bfaef6f0be3459ca3d4f017a90432a10f7d

32 KB

Статус: проверено
Скачан: 0 раз
Размер: 6.15 GB
Оценка: 
(Голосов: 0)
Сказали спасибо: 0  Спасибо
Похожие темы
[Профиль]    [ЛС]
Показать сообщения:    
Ответить на тему

Текущее время: Сегодня 15:06

Часовой пояс: GMT + 7



Вы не можете начинать темы
Вы не можете отвечать на сообщения
Вы не можете редактировать свои сообщения
Вы не можете удалять свои сообщения
Вы не можете голосовать в опросах
Вы не можете прикреплять файлы к сообщениям
Вы можете скачивать файлы