Такси, прицеп и коррида / Taxi, Roulotte et Corrida (Андре Юнебелль / André Hunebelle) [1958, Франция, комедия, криминал, HDRip] MVO (5 Канал СПб) + MVO (студия "Инис")

Ответить на тему
Статистика раздачи [Обновить пиров]
Размер:  1.37 GB   |    Зарегистрирован:  10 дней   |    Скачан:  0 раз

Полного источника не было: Никогда

 
   
 
 
 
Автор Сообщение

Генри

Создавать темы 15-Мар-2019 03:32

[Цитировать]

Такси, прицеп и коррида / Taxi, Roulotte et Corrida Страна: Франция
Жанр: комедия, криминал
Год выхода: 1958
Продолжительность: 01:25:47
Перевод: Профессиональный (многоголосый закадровый) 5 Канал СПб
Перевод 2: Профессиональный (многоголосый закадровый) студия "Инис" по заказу "СоюзВидео"
Субтитры: нет
Оригинальная аудиодорожка: нет
Режиссер: Андре Юнебелль / André Hunebelle
В ролях: Луи де Фюнес, Раймон Бюссьер, Анетт Пувр, Жак Динам, Полетт Дюбо, Ги Бертиль, Жак Бертран, Луи Бужетт, Вера Вальмон, Жак Дюфило, Марк Эйро, Марио Пилар, Альбер Пилетт, Софи Сель, Макс Револь, Роже Демар, Валери Вивен, Морис Гардетт, Люси Фабиоль, Бернар Мюссон
Описание: Таксист Морис Берже (Луи де Фюнес) никак не может дождаться окончания работы, что и понятно, ведь уже через час он вместе со своей семьей, а также с семьей свояка Леона, отправится в автопробег Франция-Испания. И вот желанное время старта настало! Прицепив к своему вместительному автомобилю прицеп свояка, забавная компания отправляется в путь. Хитрец и пройдоха Морис обещает всем незабываемое путешествие и много приключений. А как же иначе? Еще на таможне юркий таксист доказывает, что его ловкачество не знает предела — только посмотрите как он обманул таможенников и провез через границу запрещенный табак, спрятав его в носках. Качествами Мориса пользуется случайная попутчица героев — роскошная блондинка красавица-контрабандистка, подкинув на таможне в карман пиджака юморного таксиста огромный, краденный брильянт стоимостью в 100 миллионов франков. Уже в Испании за такси с прицепом начинается настоящая погоня. Бандиты пытаются вернуть себе сокровище, но учитывая находчивость и природное везение Мориса сделать это будет не легко...
Доп. информация: За видеоряд благодарю Kоenig. За сихрон звуковой дороги 5 Канала СПб спасибо TestM.
Сэмпл: http://multi-up.com/1226406
Качество видео: HDRip
Источник: none Такси, прицеп и коррида / Taxi, Roulotte et Corrida / 1958 / ПМ / Blu-Ray Remux (1080p)
Формат файла: AVI
Видео: XviD, 720x432 (1.67:1), 23.976 fps, 1894kbps avg
Аудио: Russian AC3 Dolby Digital, 48 kHz, 2/0 (L,R) ch, 192.00 kbps avg (5 Канал СПб)
Аудио 2: Russian AC3 Dolby Digital, 48 kHz, 2/0 (L,R) ch, 192.00 kbps avg (Инис)

MediaInfo

GeneralComplete name : G:\Такси, прицеп и коррида_1958\Такси.прицеп.коррида.1958.HDRip.MVO.5.канал.СПб.Инис.aviFormat : AVIFormat/Info : Audio Video InterleaveFile size : 1.37 GiBDuration : 1 h 25 minOverall bit rate : 2 293 kb/sWriting application : VirtualDubModRus 1.5.10.2 (build 2542/release)Writing library : VirtualDubMod build 2542/release
VideoID : 0Format : MPEG-4 VisualFormat profile : Advanced Simple@L5Format settings : BVOP1 / Custom MatrixFormat settings, BVOP : 1Format settings, QPel : NoFormat settings, GMC : No warppointsFormat settings, Matrix : CustomCodec ID : XVIDCodec ID/Hint : XviDDuration : 1 h 25 minBit rate : 1 895 kb/sWidth : 720 pixelsHeight : 432 pixelsDisplay aspect ratio : 5:3Frame rate : 23.976 (24000/1001) FPSColor space : YUVChroma subsampling : 4:2:0Bit depth : 8 bitsScan type : ProgressiveCompression mode : LossyBits/(Pixel*Frame) : 0.254Stream size : 1.14 GiB (83%)Writing library : XviD 65
Audio #1ID : 1Format : AC-3Format/Info : Audio Coding 3Codec ID : 2000Duration : 1 h 25 minBit rate mode : ConstantBit rate : 192 kb/sChannel(s) : 2 channelsChannel positions : Front: L RSampling rate : 48.0 kHzFrame rate : 31.250 FPS (1536 SPF)Bit depth : 16 bitsCompression mode : LossyStream size : 118 MiB (8%)Alignment : Split accross interleavesInterleave, duration : 42 ms (1.00 video frame)Interleave, preload duration : 500 msService kind : Complete Main
Audio #2ID : 2Format : AC-3Format/Info : Audio Coding 3Codec ID : 2000Duration : 1 h 25 minBit rate mode : ConstantBit rate : 192 kb/sChannel(s) : 2 channelsChannel positions : Front: L RSampling rate : 48.0 kHzFrame rate : 31.250 FPS (1536 SPF)Bit depth : 16 bitsCompression mode : LossyStream size : 118 MiB (8%)Alignment : Split accross interleavesInterleave, duration : 42 ms (1.00 video frame)Interleave, preload duration : 500 msService kind : Complete Main

Скриншоты

Источник: none

http:///forum/viewtopic.php?t=1318853 (перевод "Инис")


[torrentc.info]_t_5703954.torrent
Торрент: Зарегистрирован ·  [ 2019-03-15 03:32 ] ·  56424a25dec8e69dda44ff3397b6c34b94c56451

14 KB

Статус: проверено
Скачан: 0 раз
Размер: 1.37 GB
Оценка: 
(Голосов: 0)
Сказали спасибо: 0  Спасибо
Похожие темы
[Профиль]    [ЛС]
Показать сообщения:    
Ответить на тему

Текущее время: Сегодня 14:53

Часовой пояс: GMT + 7



Вы не можете начинать темы
Вы не можете отвечать на сообщения
Вы не можете редактировать свои сообщения
Вы не можете удалять свои сообщения
Вы не можете голосовать в опросах
Вы не можете прикреплять файлы к сообщениям
Вы можете скачивать файлы