NHL 18/19, RS, Toronto Maple Leafs - Edmonton Oilers [09.03.2019, Хоккей, HDTVRip/720p/50fps, MKV/H.264, RU/INT, Eurosport]

Ответить на тему
Статистика раздачи [Обновить пиров]
Размер:  3.47 GB   |    Зарегистрирован:  10 дней   |    Скачан:  0 раз

Полного источника не было: Никогда

 
   
 
 
 
Автор Сообщение

Mak

Создавать темы 14-Мар-2019 21:51

[Цитировать]

NHL 18/19
Toronto Maple Leafs - Edmonton Oilers
Год выхода: 09.03.2019
Вид спорта: Хоккей
Комментарий: Профессиональный
Язык комментариев: Русский (Мосалев, Дегтярев) / Интершум-Описание: NHL 18/19, RS. Toronto Maple Leafs - Edmonton Oilers.-Автор рипа: Настольный Теннисист
Качество: HDTVRip
Формат файла: MKV
Видео кодек: H.264
Аудио кодек: AAC
Видео: MPEG4 Video (H264) 1280x720 (16:9) 50fps 4000kbps
Аудио: Dolby AC3 48000Hz stereo 192kbps
Продолжительность">

Скриншоты Продолжительность

01:49:08

СчетСчет

Toronto Maple Leafs - Edmonton Oilers
3 - 2

MediaInfo

GeneralUnique ID : 243392928190062919124637004894483154623 (0xB71BC5DA80A352AAB23D0C540AAA86BF)Complete name : Y:\торрент\NHL 18-19, RS. Toronto Maple Leafs - Edmonton Oilers. 09.03.2019. Eurosport. RU-INT. .mkvFormat : MatroskaFormat version : Version 2File size : 3.47 GiBDuration : 1 h 49 minOverall bit rate : 4 553 kb/sWriting application : Lavf54.63.104Writing library : Lavf54.63.104
VideoID : 1Format : AVCFormat/Info : Advanced Video CodecFormat profile : High@L4.1Format settings : CABAC / 4 Ref FramesFormat settings, CABAC : YesFormat settings, RefFrames : 4 framesCodec ID : V_MPEG4/ISO/AVCDuration : 1 h 49 minBit rate : 4 078 kb/sWidth : 1 280 pixelsHeight : 720 pixelsDisplay aspect ratio : 16:9Frame rate mode : ConstantFrame rate : 50.000 FPSColor space : YUVChroma subsampling : 4:2:0Bit depth : 8 bitsScan type : ProgressiveBits/(Pixel*Frame) : 0.089Stream size : 3.11 GiB (90%)Default : NoForced : No
Audio #1ID : 2Format : AC-3Format/Info : Audio Coding 3Commercial name : Dolby DigitalCodec ID : A_AC3Duration : 1 h 49 minBit rate mode : ConstantBit rate : 192 kb/sChannel(s) : 2 channelsChannel layout : L RSampling rate : 48.0 kHzFrame rate : 31.250 FPS (1536 SPF)Bit depth : 16 bitsCompression mode : LossyStream size : 150 MiB (4%)Language : RussianService kind : Complete MainDefault : YesForced : No
Audio #2ID : 3Format : AC-3Format/Info : Audio Coding 3Commercial name : Dolby DigitalCodec ID : A_AC3Duration : 1 h 49 minBit rate mode : ConstantBit rate : 192 kb/sChannel(s) : 2 channelsChannel layout : L RSampling rate : 48.0 kHzFrame rate : 31.250 FPS (1536 SPF)Bit depth : 16 bitsCompression mode : LossyStream size : 150 MiB (4%)Language : EnglishService kind : Complete MainDefault : NoForced : No

Составы

Toronto Maple Leafs
2 D RON HAINSEY
8 D JAKE MUZZIN
11 C ZACH HYMAN
12 C PATRICK MARLEAU (A)
16 C MITCHELL MARNER
18 L ANDREAS JOHNSSON
22 D NIKITA ZAITSEV
24 R KASPERI KAPANEN
28 R CONNOR BROWN
29 C WILLIAM NYLANDER
33 C FREDERIK GAUTHIER
34 C AUSTON MATTHEWS
43 C NAZEM KADRI
44 D MORGAN RIELLY (A)
52 D MARTIN MARINCIN
63 C TYLER ENNIS
91 C JOHN TAVARES (A)
92 D IGOR OZHIGANOV
31 G FREDERIK ANDERSEN
40 G GARRET SPARKS-Edmonton Oilers
2 D ANDREJ SEKERA
4 D KRIS RUSSELL
6 D ADAM LARSSON (A)
8 R TY RATTIE
12 C COLBY CAVE
16 L JUJHAR KHAIRA
22 C TOBIAS RIEDER
25 D DARNELL NURSE
28 C KYLE BRODZIAK
29 C LEON DRAISAITL
39 R ALEX CHIASSON
43 R JOSH CURRIE
44 R ZACK KASSIAN
77 D OSCAR KLEFBOM
83 D MATT BENNING
89 C SAM GAGNER
93 C RYAN NUGENT-HOPKINS (A)
97 C CONNOR MCDAVID (C)
19 G MIKKO KOSKINEN
32 G ANTHONY STOLARZ


[torrentc.info]_t_5701761.torrent
Торрент: Зарегистрирован ·  [ 2019-03-14 21:48 ] ·  7742bce293473cf1c26c05e44ecb2077817f44ee

18 KB

Статус: проверено
Скачан: 0 раз
Размер: 3.47 GB
Оценка: 
(Голосов: 0)
Сказали спасибо: 0  Спасибо
Похожие темы
[Профиль]    [ЛС]
Показать сообщения:    
Ответить на тему

Текущее время: Сегодня 15:08

Часовой пояс: GMT + 7



Вы не можете начинать темы
Вы не можете отвечать на сообщения
Вы не можете редактировать свои сообщения
Вы не можете удалять свои сообщения
Вы не можете голосовать в опросах
Вы не можете прикреплять файлы к сообщениям
Вы можете скачивать файлы