Лили / Lili (Рихо Унт / Riho Unt) [2008, Эстония, авторская анимация, WEBRip-AVC]

Ответить на тему
Статистика раздачи [Обновить пиров]
Размер:  176 MB   |    Зарегистрирован:  10 дней   |    Скачан:  0 раз

Полного источника не было: Никогда

 
   
 
 
 
Автор Сообщение

КЭП

Создавать темы 14-Мар-2019 21:49

[Цитировать]

Лили / Lili
Страна: Эстония
Жанр: авторская анимация
Год выхода: 2008
Продолжительность: 00:14:11
Перевод: не требуется
Субтитры: нет
Режиссёр: Рихо Унт / Riho Unt
В ролях: Хеле Кыре / Hele Kõre, Ярмо Мурумаа / Jarmo Murumaa
Описание: Девушка ждёт молодого человека, ушедшего на фронт. В это время его труп лежит на поле боя в воронке от снаряда, а вокруг собираются крысы, предвкушая поживу. Неожиданно их останавливает песня "Лили Марлен", звучащая из переносного радиопередатчика...
Доп. информация:
Sleepwalkers Special Mention - Tallinn Black Nights Film Festival (2008)
Grand Prix - Krok International Animated Films Festival (2009)
Best Animation Prize - Avanca Film Festival (2009)
Качество видео: WEBRip-AVC
Формат файла: MP4
Видео: 1604 kbps, 1280х720 (16:9), 25.000 fps, AVC (High@L3.1)
Аудио: 126 kbps, 44.1 kHz, 2 channels, AAC (LC)

MediaInfo

GeneralComplete name : Lili (2008).mp4Format : MPEG-4Format profile : Base Media / Version 2Codec ID : mp42File size : 176 MiBDuration : 14mn 11sOverall bit rate mode : VariableOverall bit rate : 1 733 KbpsEncoded date : UTC 2017-12-15 18:35:02Tagged date : UTC 2017-12-15 18:35:02gsst : 0gstd : 851429
VideoID : 1Format : AVCFormat/Info : Advanced Video CodecFormat profile : Main@L3.1Format settings, CABAC : YesFormat settings, ReFrames : 3 framesCodec ID : avc1Codec ID/Info : Advanced Video CodingDuration : 14mn 11sBit rate : 1 604 KbpsWidth : 1 280 pixelsHeight : 720 pixelsDisplay aspect ratio : 16:9Frame rate mode : ConstantFrame rate : 25.000 fpsColor space : YUVChroma subsampling : 4:2:0Bit depth : 8 bitsScan type : ProgressiveBits/(Pixel*Frame) : 0.070Stream size : 163 MiB (93%)Title : ISO Media file produced by Google Inc. Created on: 12/15/2017.Encoded date : UTC 2017-12-15 18:35:02Tagged date : UTC 2017-12-15 18:35:02Color primaries : BT.709Transfer characteristics : BT.709Matrix coefficients : BT.709
AudioID : 2Format : AACFormat/Info : Advanced Audio CodecFormat profile : LCCodec ID : 40Duration : 14mn 11sBit rate mode : VariableBit rate : 126 KbpsChannel(s) : 2 channelsChannel positions : Front: L RSampling rate : 44.1 KHzCompression mode : LossyStream size : 12.7 MiB (7%)Title : ISO Media file produced by Google Inc. Created on: 12/15/2017.Encoded date : UTC 2017-12-15 18:35:02Tagged date : UTC 2017-12-15 18:35:02

Скриншот c названием фильма

Скриншоты



[torrentc.info]_t_5692981.torrent
Торрент: Зарегистрирован ·  [ 2019-03-14 21:48 ] ·  858832fa5951f1c43dfe2c30ce827607bf14da23

14 KB

Статус: проверено
Скачан: 0 раз
Размер: 176 MB
Оценка: 
(Голосов: 0)
Сказали спасибо: 0  Спасибо
Похожие темы
[Профиль]    [ЛС]
Показать сообщения:    
Ответить на тему

Текущее время: Сегодня 15:04

Часовой пояс: GMT + 7



Вы не можете начинать темы
Вы не можете отвечать на сообщения
Вы не можете редактировать свои сообщения
Вы не можете удалять свои сообщения
Вы не можете голосовать в опросах
Вы не можете прикреплять файлы к сообщениям
Вы можете скачивать файлы