Тени / Umbre / Сезон: 2 / Серии: 1-6 из 6 (Богдан Мирица, Игорь Кобылянский) [2017, Румыния, триллер, драма, криминал, HDTVRip] DVO (ViruseProject) + Original

Reply to topic
DL-List and Torrent activity [Update пиров]
Size:  4.29 GB   |    Registered:  7 months 4 days   |    Completed:  0 times

Seeder not seen: Never

 
   
 
 
 
Author Message

Пушистый

Post 14-Mar-2019 21:49

[Quote]

Тени | Umbre- Год выхода: 2017
Страна: Румыния
Жанр: триллер, драма, криминал
Продолжительность: ~ 00:55:00
Перевод: Любительский (двухголосый закадровый) ViruseProject--Режиссёр: Богдан Мирица, Игорь Кобылянский
В ролях: Сербан Павлу, Мария Обретен, Андриа Василь, Габриэль Уйян, Серджиу Костаке, Дору Ана, Штефан Вельничиук, Сорин Косис и др.-Описание: Релу — семейный человек, у которого есть жена и двое детей. Для его семьи, Релу обычный водитель такси. Никто и не подозревает, что он ведет двойную жизнь. Релу работает коллектором местного гангстера. Ни один из двух миров (семья и мафия) не знает о существовании другого. Ему удается держать все под контролем, но это не на долго.
После случайного убийства человека, он пытается выйти из преступного мира, но он не может найти дорогу обратно. День за днем, из-за секретов, жизнь продолжает становиться все более гнетущей, а ложь постепенно выходит на поверхность…-
Качество: HDTVRip
Формат файла: AVI
Видео: XVID, 720x400, 25.000 fps, ~1559 kbps avg, ~0.21 bit/pixel
Аудио Rus: MP3, 48.0 KHz, 2 channels, 128 kbps
Аудио Rom: MP3, 48.0 KHz, 2 channels, 128 kbps
Субтитры: нет
Реклама отсутствует
[url=tracker.php?g=foreign_serials&nm=Umbre]Все раздачи сериала[/url]

MediaInfo

General
Complete name : D:\Сериалы\Тени (Сезон 2) ViruseProject\Umbre.s02e01.avi
Format : AVI
Format/Info : Audio Video Interleave
File size : 777 MiB
Duration : 59 min 22 s
Overall bit rate : 1 829 kb/s
Writing application : VirtualDubMod 1.5.10.2 (build 2540/release)
Writing library : VirtualDubMod build 2540/release
Video
ID : 0
Format : MPEG-4 Visual
Format profile : Advanced Simple@L5
Format settings, BVOP : 1
Format settings, QPel : No
Format settings, GMC : No warppoints
Format settings, Matrix : Custom
Codec ID : XVID
Codec ID/Hint : XviD
Duration : 59 min 22 s
Bit rate : 1 559 kb/s
Width : 720 pixels
Height : 400 pixels
Display aspect ratio : 16:9
Frame rate : 25.000 FPS
Color space : YUV
Chroma subsampling : 4:2:0
Bit depth : 8 bits
Scan type : Progressive
Compression mode : Lossy
Bits/(Pixel*Frame) : 0.216
Stream size : 662 MiB (85%)
Writing library : XviD 73
Audio #1
ID : 1
Format : MPEG Audio
Format version : Version 1
Format profile : Layer 3
Mode : Joint stereo
Codec ID : 55
Codec ID/Hint : MP3
Duration : 59 min 22 s
Bit rate mode : Constant
Bit rate : 128 kb/s
Channel(s) : 2 channels
Sampling rate : 48.0 kHz
Compression mode : Lossy
Stream size : 54.4 MiB (7%)
Alignment : Split accross interleaves
Interleave, duration : 40 ms (1.00 video frame)
Interleave, preload duratio : 500 ms
Audio #2
ID : 2
Format : MPEG Audio
Format version : Version 1
Format profile : Layer 3
Mode : Joint stereo
Mode extension : MS Stereo
Codec ID : 55
Codec ID/Hint : MP3
Duration : 59 min 22 s
Bit rate mode : Constant
Bit rate : 128 kb/s
Channel(s) : 2 channels
Sampling rate : 48.0 kHz
Compression mode : Lossy
Stream size : 54.4 MiB (7%)
Alignment : Split accross interleaves
Interleave, duration : 40 ms (1.00 video frame)
Interleave, preload duratio : 500 ms
">

Скриншоты


Hanzores


[geo-torrent.biz]_t_5698515.torrent
Torrent: Registered ·  [ 2019-03-14 21:48 ] ·  c4fdcc4a6c002455168b4bc4b9b6bbe0b90c4515

22 KB

Status: checked
Completed: 0 times
Size: 4.29 GB
Rating: 
(Votes: 0)
Say thanks: 0  Thanks
Похожие темы
[Profile]    [PM]
Display posts from previous:    
Reply to topic

The time now is: Today 06:53

All times are GMT + 7 Hours



You cannot post new topics in this forum
You cannot reply to topics in this forum
You cannot edit your posts in this forum
You cannot delete your posts in this forum
You cannot vote in polls in this forum
You cannot attach files in this forum
You can download files in this forum