Формула 1. Сезон 2019. Racing Point Car Launch. Sky Sports F1 HD [13.02.2019, Формула 1, ΙPTV/1080p/25fps, MKV/H.264, EN]

Ответить на тему
Статистика раздачи [Обновить пиров]
Размер:  1.14 GB   |    Зарегистрирован:  10 дней   |    Скачан:  0 раз

Полного источника не было: Никогда

 
   
 
 
 
Автор Сообщение

Мых

Создавать темы 14-Мар-2019 21:49

[Цитировать]

Формула 1. Сезон 2019. Racing Point Car Launch. Sky Sports F1 HD
Вид спорта: Формула 1
Язык комментариев:Английский
Автор рипа/записи: Ales
Качество: ΙPTV
Формат файла: MKV
Видео: H264, 1920X1080p, 25 кадр/c, 5 000 kb/s
Аудио: AAC 2.0, 48.0 KHz, 128 kb/s Английский
Дата/Год выхода: 13.02.2019

Продолжительность

0:30:47

Скриншоты

MediaInfo

GeneralUnique ID : 333052412489938540590901921711586333470 (0xFA8F8FB9A54B01D3CBA702501648D31E)Complete name : M:\F1_2019\F1.2019.Racing.Point.Car.Launch.SkyF1HD.1080P.mkvFormat : MatroskaFormat version : Version 4File size : 1.14 GiBDuration : 30 min 47 sOverall bit rate : 5 322 kb/sEncoded date : UTC 2019-02-13 19:30:44Writing application : mkvmerge v31.0.0 ('Dolores In A Shoestand') 64-bitWriting library : libebml v1.3.6 + libmatroska v1.4.9
VideoID : 1Format : AVCFormat/Info : Advanced Video CodecFormat profile : High@L4Format settings : CABAC / 4 Ref FramesFormat settings, CABAC : YesFormat settings, RefFrames : 4 framesCodec ID : V_MPEG4/ISO/AVCDuration : 30 min 47 sBit rate : 5 194 kb/sWidth : 1 920 pixelsHeight : 1 080 pixelsDisplay aspect ratio : 16:9Frame rate mode : ConstantFrame rate : 25.000 FPSColor space : YUVChroma subsampling : 4:2:0Bit depth : 8 bitsScan type : ProgressiveBits/(Pixel*Frame) : 0.100Stream size : 1.12 GiB (98%)Default : YesForced : No
AudioID : 2Format : AAC LCFormat/Info : Advanced Audio Codec Low ComplexityCodec ID : A_AAC-2Duration : 30 min 47 sBit rate : 125 kb/sChannel(s) : 2 channelsChannel layout : L RSampling rate : 48.0 kHzFrame rate : 46.875 FPS (1024 SPF)Compression mode : LossyDelay relative to video : -9 msStream size : 27.6 MiB (2%)Language : EnglishDefault : YesForced : No


[torrentc.info]_t_5689407.torrent
Торрент: Зарегистрирован ·  [ 2019-03-14 21:48 ] ·  04d1de27e9997f4aa57ad1be6134eeb01762d8db

23 KB

Статус: проверено
Скачан: 0 раз
Размер: 1.14 GB
Оценка: 
(Голосов: 0)
Сказали спасибо: 0  Спасибо
Похожие темы
[Профиль]    [ЛС]
Показать сообщения:    
Ответить на тему

Текущее время: Сегодня 14:51

Часовой пояс: GMT + 7



Вы не можете начинать темы
Вы не можете отвечать на сообщения
Вы не можете редактировать свои сообщения
Вы не можете удалять свои сообщения
Вы не можете голосовать в опросах
Вы не можете прикреплять файлы к сообщениям
Вы можете скачивать файлы