Биография. Иван Грозный. Могущество и безумие / Biography. Ivan the Terrible. Might and Madness [1997, Документальный, биография, история, SATRip]

Reply to topic
DL-List and Torrent activity [Update пиров]
Size:  660 MB   |    Registered:  7 months   |    Completed:  0 times

Seeder not seen: Never

 
   
 
 
 
Author Message

Генри

Post 14-Mar-2019 20:46

[Quote]

Биография. Иван Грозный. Могущество и безумие / Biography. Ivan the Terrible. Might and Madness
Дата/Год выхода: 1997
Страна: США, A&E Television Networks
Жанр: Документальный, биография, история
Продолжительность: 00:43:55
Перевод: Профессиональный (дублированный)
Телеканал: Н2
Описание: Тысячи людей пали жертвами его безжалостных амбиций, а возможно и безумия. Среди них были и враги, и друзья. Он сумел объединить страну, но за это русский народ заплатил кровью. Несмотря на жестокость, его история была настолько важна для русского духа, что монументальный фильм о его жизни шел на экранах в тяжелейшие дни Второй мировой войны. Его звали Иван IV. Он первым из российских правителей использовал новый титул. Это был царь Иван Грозный.
Доп. информация: Авторство релиза - alf62


качество: SATRip
формат: AVI
Видео: 704x528 (1.33:1), 25 fps, XviD build 73 ~1899 kbps avg, 0.20 bit/pixel
Аудио: 48 kHz, AC3 Dolby Digital, 2/0 (L,R) ch, ~192.00 kbps avg[url=tracker.php?nm=%D0%91%D0%B8%D0%BE%D0%B3%D1%80%D0%B0%D1%84%D0%B8%D1%8F%20%2F%20Biography]Биография / Biography на .cr[/url]

MediaInfo

ОбщееПолное имя : D:\Запись\Заклятые герои истории\Иван.Грозный.Могущество.и.безумие.1997.XviD.SATRip.alf62.aviФормат файла : AVIФормат файла/Информация : Audio Video InterleaveРазмер файла : 660 МбайтПродолжительность : 43 м.Общий поток : 2101 Кбит/секПрограмма кодирования : VirtualDubMod 1.5.10.3 | www.virtualdub-fr.org || (build 2550/release)Библиотека кодирования : VirtualDubMod build 2550/release
ВидеоИдентификатор : 0Формат файла : MPEG-4 VisualПрофиль формата : Advanced Simple@L5Параметр BVOP формата : 2Параметр QPel формата : НетПараметр GMC формата : Без точки переходаПараметр матрицы формата : Default (MPEG)Идентификатор кодека : XVIDИдентификатор кодека/Подсказка : XviDПродолжительность : 43 м.Битрейт : 1900 Кбит/секШирина : 704 пикселяВысота : 528 пикселейСоотношение сторон : 4:3Частота кадров : 25,000 кадров/секЦветовое пространство : YUVСубдискретизация насыщенности : 4:2:0Битовая глубина : 8 битТип развёртки : ПрогрессивнаяМетод сжатия : С потерямиБит/(Пиксели*Кадры) : 0.204Размер потока : 597 Мбайт (90%)Библиотека кодирования : XviD 73
АудиоИдентификатор : 1Формат файла : AC-3Формат файла/Информация : Audio Coding 3Расширение режима : CM (complete main)Параметр Endianness формата : BigИдентификатор кодека : 2000Продолжительность : 43 м.Вид битрейта : ПостоянныйБитрейт : 192 Кбит/секКаналы : 2 каналаРасположение каналов : Front: L RЧастота : 48,0 КГцЧастота кадров : 31,250 кадров/сек (1536 spf)Метод сжатия : С потерямиРазмер потока : 60,3 Мбайт (9%)Выравнивание : Разделение по промежуткамПродолжительность промежутка : 40 мс. (1,00 видеокадр)Время предзагрузки промежутка : 500 мс.


[geo-torrent.biz]_t_5703491.torrent
Torrent: Registered ·  [ 2019-03-14 20:46 ] ·  1c735d392685b48531051e83a3cb6444f7e80af2

14 KB

Status: checked
Completed: 0 times
Size: 660 MB
Rating: 
(Votes: 0)
Say thanks: 0  Thanks
Похожие темы
[Profile]    [PM]
Display posts from previous:    
Reply to topic

The time now is: Today 09:03

All times are GMT + 7 Hours



You cannot post new topics in this forum
You cannot reply to topics in this forum
You cannot edit your posts in this forum
You cannot delete your posts in this forum
You cannot vote in polls in this forum
You cannot attach files in this forum
You can download files in this forum