Бугипоп никогда не смеётся / Boogiepop wa Warawanai [TV] [1-15 из 18] [Без хардсаба] [JAP, SUB] [2019, мистика, драма, ужасы, WEBRip] [1080p]

Ответить на тему
Статистика раздачи [Обновить пиров]
Размер:  11.1 GB   |    Зарегистрирован:  11 дней   |    Скачан:  0 раз

Полного источника не было: Никогда

 
   
 
 
 
Автор Сообщение

Mak

Создавать темы 14-Мар-2019 02:00

[Цитировать]

Бугипоп никогда не смеётся / Boogiepop wa Warawanai
Страна: Япония
Год выхода: 2019
Жанр: мистика, драма, ужасы
Тип: TV
Продолжительность: 18 эп., ~25 мин. эпизод
Режиссер: Нацумэ Синго
Студия: Madhouse Studios
Описание: Существует одна городская легенда, в которой рассказывается о синигами — боге смерти. Он может освободить человека от боли, вызывающей страдания. У этого «ангела смерти» есть имя — Бугипоп. Это не выдуманная история, Бугипоп существует. Когда в Академии Синъё случается цепочка таинственных исчезновений учениц, полиция и преподавательский состав предполагают, что это просто группа прогульщиков, которые решили сбежать с уроков. Но некоторые ученики знают правду, таинственную и по-настоящему подлую. Неужели это Бугипоп похищает учеников или же что-то ещё более зловещее?..
Качество: WEBRip
Тип релиза: Без хардсаба
Формат файла: MKV
Наличие линковки: Нет
/Автор рипа: HorribleSubs
Видео: 1920x1080, x264, 4 842 kb/s, 23.976 fps, 8 бит
Аудио: AAC, 128 kb/s, 2 ch, 44.1 kHz; Язык Японский
Субтитры: ASS, внешние; Язык субтитров русский ; Перевод: Sovetromantica (guide dog & TapokPingvin)
Субтитры 2: Внутренние(отключаемые) Язык субтитров английский ; Перевод: HorribleSubs

Подробные тех. данные

ОбщееУникальный идентификатор : 0 (0x0)Полное имя : D:\Users\SeVeN\Видео\Аниме\[2019]\Boogiepop wa Warawanai\[HorribleSubs] Boogiepop wa Warawanai (2019) - 01 [1080p].mkvФормат файла : MatroskaВерсия формата : Version 4Размер файла : 842 МбайтПродолжительность : 23 м. 40 с.Общий поток : 4974 Кбит/секДата кодирования : UTC 2010-02-22 21:41:29Программа кодирования : no_variable_dataБиблиотека кодирования : no_variable_dataAttachments : OpenSans-Semibold.ttf
ВидеоИдентификатор : 1Формат файла : AVCФормат файла/Информация : Advanced Video CodecПрофиль формата : High@L4Настройки формата : CABAC / 4 Ref FramesПараметр CABAC формата : ДаПараметр RefFrames формата : 4 кадраИдентификатор кодека : V_MPEG4/ISO/AVCПродолжительность : 23 м. 40 с.Битрейт : 4842 Кбит/секШирина : 1920 пикселейВысота : 1080 пикселейСоотношение сторон : 16:9Режим частоты кадров : ПостоянныйЧастота кадров : 23,976 (24000/1001) кадра/секЦветовое пространство : YUVСубдискретизация насыщенности : 4:2:0Битовая глубина : 8 битТип развёртки : ПрогрессивнаяБит/(Пиксели*Кадры) : 0.097Размер потока : 820 Мбайт (97%)Библиотека кодирования : x264 core 142Настройки программы : cabac=1 / ref=4 / deblock=1:1:1 / analyse=0x3:0x113 / me=umh / subme=8 / psy=1 / psy_rd=0.40:0.00 / mixed_ref=1 / me_range=16 / chroma_me=1 / trellis=1 / 8x8dct=1 / cqm=0 / deadzone=21,11 / fast_pskip=1 / chroma_qp_offset=-2 / threads=12 / lookahead_threads=2 / sliced_threads=0 / nr=0 / decimate=1 / interlaced=0 / bluray_compat=0 / constrained_intra=0 / bframes=3 / b_pyramid=2 / b_adapt=2 / b_bias=0 / direct=3 / weightb=1 / open_gop=0 / weightp=2 / keyint=48 / keyint_min=25 / scenecut=0 / intra_refresh=0 / rc_lookahead=48 / rc=crf / mbtree=1 / crf=15.0 / qcomp=0.60 / qpmin=0 / qpmax=69 / qpstep=4 / vbv_maxrate=8000 / vbv_bufsize=12000 / crf_max=0.0 / nal_hrd=none / filler=0 / ip_ratio=1.40 / aq=1:0.60Default : ДаForced : Нет
АудиоИдентификатор : 2Формат файла : AAC LCФормат файла/Информация : Advanced Audio Codec Low ComplexityИдентификатор кодека : A_AAC-2Продолжительность : 23 м. 40 с.Битрейт : 128 Кбит/секКаналы : 2 каналаChannel layout : L RЧастота : 44,1 КГцЧастота кадров : 43,066 кадра/сек (1024 SPF)Метод сжатия : С потерямиЗадержка видео : -83 мс.Размер потока : 21,7 Мбайт (3%)Язык : JapaneseDefault : ДаForced : Нет
ТекстИдентификатор : 3Формат файла : ASSИдентификатор кодека : S_TEXT/ASSИдентификатор кодека/Информация : Advanced Sub Station AlphaПродолжительность : 21 м. 48 с.Битрейт : 124 бит/секElementCount : 283Метод сжатия : Без потерьРазмер потока : 19,8 Кбайт (0%)Язык : EnglishDefault : ДаForced : Нет

Список эпизодов

1.Boogiepop and Other
2.Boogiepop and Others 2
3.Boogiepop and Others 3
4.VS Imaginator 1
5.VS Imaginator 2
6.VS Imaginator 3
7.VS Imaginator 4
8.VS Imaginator 5
9.VS Imaginator 6
10.Boogiepop at Dawn 1
11.Boogiepop at Dawn 2
12.Boogiepop at Dawn 3
13.Boogiepop at Dawn 4
14.Overdrive: The King of Distortion 1
15.The King of Distortion 2

Скриншоты

Раздача идет 24/7. Качайте спокойно и не смотрите на "Полный Источник: none не было никогда".


[torrentc.info]_t_5703220.torrent
Торрент: Зарегистрирован ·  [ 2019-03-14 02:00 ] ·  dacfa6ca238ecdcaad73223888bee3a393ad851c

31 KB

Статус: проверено
Скачан: 0 раз
Размер: 11.1 GB
Оценка: 
(Голосов: 0)
Сказали спасибо: 0  Спасибо
Похожие темы
[Профиль]    [ЛС]
Показать сообщения:    
Ответить на тему

Текущее время: Сегодня 14:56

Часовой пояс: GMT + 7



Вы не можете начинать темы
Вы не можете отвечать на сообщения
Вы не можете редактировать свои сообщения
Вы не можете удалять свои сообщения
Вы не можете голосовать в опросах
Вы не можете прикреплять файлы к сообщениям
Вы можете скачивать файлы