(Jazz, Pop, Instrumental) [CD] VA - Christmas Guitars - 1989, FLAC (tracks+.cue), lossless

Ответить на тему
Статистика раздачи [Обновить пиров]
Размер:  215 MB   |    Зарегистрирован:  11 дней   |    Скачан:  0 раз

Полного источника не было: Никогда

 
   
 
 
 
Автор Сообщение

Пушистый

Создавать темы 13-Мар-2019 21:24

[Цитировать]

Christmas Guitars
Жанр: Jazz, Pop, Instrumental
Носитель: CD
Страна-производитель диска (релиза): US
Год издания: 1989
Издатель (лейбл): Green Linnet
Номер по каталогу: GLCD 1103
Аудиокодек: FLAC (*.flac)
Тип рипа: tracks+.cue
Битрейт аудио: lossless
Продолжительность: 00:46:08
Источник: локальная сеть
Наличие сканов в содержимом раздачи: да
Треклист:
1 The Guitar Ensemble - White Christmas 3:43
2 Nancy Wilson - Bring A Torch, Jeanette, Isabella 1:09
3 Larry Coryell -The Christmas Song 2:55
4 Al Anderson - Rudolph The Red-Nosed Reindeer 1:05
5 Adrian Belew -We Three Kings 1:51
6 David Tanenbaum -Christmas Passacaglia 3:51
7 Taj Mahal- God Rest, Ye Merry Gentlemen 2:20
8 Yomo Toro- Christmas Medley 4:11
9 Terre Roche -Joy To The World 2:17
10 Al Kooper- Winter Wonderland 3:12
11 Emily Remler- We Three Kings 3:20
12 Gerald Trimble- Taqasim For The Magi 3:01
13 Nina Gerber- Little Drummer Boy 2:14
14 Terry Garthwaite- Wind Through The Olive Trees 1:52
15 Michelle Shocked- The Christmas Song 1:31
16 John Renbourn -I Saw Three Ships 1:46
17 Larry Coryell- What Child Is This? 1:57
18 Scott Johnson- Break Forth, O Beauteous Heav'nly Light 1:23
19 John Scofield -Have Yourself A Merry Little Christmas 2:19

Лог создания рипа

EAC extraction logfile from 29. November 2007, 0:55 for CDVarious Artists - Christmas / Christmas Guitars
Used drive : TSSTcorpDVD+-RW TS-H653A Adapter: 3 ID: 0Read mode : Secure with NO C2, accurate stream, disable cacheRead offset correction : 6Overread into Lead-In and Lead-Out : No
Used output format : C:\Program Files\FLAC\flac.exe (User Defined Encoder) 128 kBit/s Additional command line options : -8 -V -T "ARTIST=%a" -T "TITLE=%t" -T "ALBUM=%g" -T "DATE=%y" -T "TRACKNUMBER=%n" -T "GENRE=%m" -T "COMMENT=EAC Flac 1.1.4 -8" %s
Other options : Fill up missing offset samples with silence : Yes Delete leading and trailing silent blocks : No Native Win32 interface for Win NT & 2000
Track 1 Filename E:\Files Upload_P\VA - Christmas Guitars (1989) [FLAC]\01 - Guitar Ensemble - White Christmas.wav
Pre-gap length 0:00:02.44
Peak level 71.1 % Track quality 100.0 % Test CRC F051B8CB Copy CRC F051B8CB Copy OK
Track 2 Filename E:\Files Upload_P\VA - Christmas Guitars (1989) [FLAC]\02 - Isabella Jeanette+Nancy Wilson - Bring a Torch.wav
Pre-gap length 0:00:01.13
Peak level 51.7 % Track quality 99.8 % Test CRC CA96051D Copy CRC CA96051D Copy OK
Track 3 Filename E:\Files Upload_P\VA - Christmas Guitars (1989) [FLAC]\03 - Larry Coryell - The Christmas Song.wav
Pre-gap length 0:00:01.06
Peak level 37.9 % Track quality 100.0 % Test CRC EE6DF1CE Copy CRC EE6DF1CE Copy OK
Track 4 Filename E:\Files Upload_P\VA - Christmas Guitars (1989) [FLAC]\04 - Al Anderson - Rudolph the Red-Nosed Reindeer.wav
Pre-gap length 0:00:01.10
Peak level 48.3 % Track quality 100.0 % Test CRC 35043CF7 Copy CRC 35043CF7 Copy OK
Track 5 Filename E:\Files Upload_P\VA - Christmas Guitars (1989) [FLAC]\05 - Adrian Belew - We Three Kings.wav
Pre-gap length 0:00:00.46
Peak level 96.9 % Track quality 100.0 % Test CRC 45955633 Copy CRC 45955633 Copy OK
Track 6 Filename E:\Files Upload_P\VA - Christmas Guitars (1989) [FLAC]\06 - David Tanenbaum - Christmas Passacaglia.wav
Peak level 67.1 % Track quality 99.9 % Test CRC 647F930C Copy CRC 647F930C Copy OK
Track 7 Filename E:\Files Upload_P\VA - Christmas Guitars (1989) [FLAC]\07 - Taj Mahal - God Rest Ye Merry Gentlemen.wav
Pre-gap length 0:00:01.89
Peak level 62.3 % Track quality 99.9 % Test CRC C09E62DC Copy CRC C09E62DC Copy OK
Track 8 Filename E:\Files Upload_P\VA - Christmas Guitars (1989) [FLAC]\08 - Yomo Toro - Christmas Medley.wav
Pre-gap length 0:00:01.37
Peak level 61.1 % Track quality 100.0 % Test CRC B6F41055 Copy CRC B6F41055 Copy OK
Track 9 Filename E:\Files Upload_P\VA - Christmas Guitars (1989) [FLAC]\09 - Terre Roche - Joy to the World.wav
Pre-gap length 0:00:00.73
Peak level 58.2 % Track quality 100.0 % Test CRC 229184F1 Copy CRC 229184F1 Copy OK
Track 10 Filename E:\Files Upload_P\VA - Christmas Guitars (1989) [FLAC]\10 - Al Kooper - Winter Wonderland.wav
Pre-gap length 0:00:00.60
Peak level 72.0 % Track quality 100.0 % Test CRC DD92E01B Copy CRC DD92E01B Copy OK
Track 11 Filename E:\Files Upload_P\VA - Christmas Guitars (1989) [FLAC]\11 - Emily Remler - We Three Kings.wav
Peak level 65.4 % Track quality 100.0 % Test CRC 036AD1F9 Copy CRC 036AD1F9 Copy OK
Track 12 Filename E:\Files Upload_P\VA - Christmas Guitars (1989) [FLAC]\12 - Gerald Trimble - Taqasim for the Magi.wav
Pre-gap length 0:00:00.02
Peak level 78.7 % Track quality 100.0 % Test CRC 087A987C Copy CRC 087A987C Copy OK
Track 13 Filename E:\Files Upload_P\VA - Christmas Guitars (1989) [FLAC]\13 - Nina Gerber - Little Drummer Boy.wav
Pre-gap length 0:00:00.86
Peak level 72.3 % Track quality 100.0 % Test CRC B22DC715 Copy CRC B22DC715 Copy OK
Track 14 Filename E:\Files Upload_P\VA - Christmas Guitars (1989) [FLAC]\14 - Terry Garthwaite - Wind Through the Olive Trees.wav
Pre-gap length 0:00:00.02
Peak level 45.8 % Track quality 100.0 % Test CRC 43B01CEB Copy CRC 43B01CEB Copy OK
Track 15 Filename E:\Files Upload_P\VA - Christmas Guitars (1989) [FLAC]\15 - Michelle Shocked - The Christmas Song.wav
Pre-gap length 0:00:00.80
Peak level 30.0 % Track quality 100.0 % Test CRC 05B566DA Copy CRC 05B566DA Copy OK
Track 16 Filename E:\Files Upload_P\VA - Christmas Guitars (1989) [FLAC]\16 - Josh Renbourn - I Saw Three Ships.wav
Peak level 66.3 % Track quality 99.9 % Test CRC 5830D6AF Copy CRC 5830D6AF Copy OK
Track 17 Filename E:\Files Upload_P\VA - Christmas Guitars (1989) [FLAC]\17 - Larry Coryell - What Child Is This.wav
Pre-gap length 0:00:00.89
Peak level 61.8 % Track quality 100.0 % Test CRC 05D2ECDA Copy CRC 05D2ECDA Copy OK
Track 18 Filename E:\Files Upload_P\VA - Christmas Guitars (1989) [FLAC]\18 - Scott Johnson - Break Forth, O Beauteous Heav'nly Light.wav
Pre-gap length 0:00:01.22
Peak level 56.8 % Track quality 100.0 % Test CRC AFC28019 Copy CRC AFC28019 Copy OK
Track 19 Filename E:\Files Upload_P\VA - Christmas Guitars (1989) [FLAC]\19 - John Scofield - Have Yourself a Merry Little Christmas.wav
Pre-gap length 0:00:01.53
Peak level 100.0 % Track quality 100.0 % Test CRC D95BF766 Copy CRC D95BF766 Copy OK
No errors occured
End of status report

Содержание индексной карты (.CUE)

REM GENRE ChristmasREM DATE 1989REM DISCID E40AD813REM COMMENT "ExactAudioCopy v0.95b3"PERFORMER "Various Artists - Christmas"TITLE "Christmas Guitars"FILE "01 - Guitar Ensemble - White Christmas.wav" WAVE TRACK 01 AUDIO TITLE "White Christmas" PERFORMER "Guitar Ensemble" PREGAP 00:00:33 INDEX 01 00:00:00 TRACK 02 AUDIO TITLE "Bring a Torch" PERFORMER "Isabella Jeanette+Nancy Wilson" INDEX 00 03:42:55FILE "02 - Isabella Jeanette+Nancy Wilson - Bring a Torch.wav" WAVE INDEX 01 00:00:00 TRACK 03 AUDIO TITLE "The Christmas Song" PERFORMER "Larry Coryell" INDEX 00 01:08:50FILE "03 - Larry Coryell - The Christmas Song.wav" WAVE INDEX 01 00:00:00 TRACK 04 AUDIO TITLE "Rudolph the Red-Nosed Reindeer" PERFORMER "Al Anderson" INDEX 00 02:55:22FILE "04 - Al Anderson - Rudolph the Red-Nosed Reindeer.wav" WAVE INDEX 01 00:00:00 TRACK 05 AUDIO TITLE "We Three Kings" PERFORMER "Adrian Belew" INDEX 00 01:05:55FILE "05 - Adrian Belew - We Three Kings.wav" WAVE INDEX 01 00:00:00FILE "06 - David Tanenbaum - Christmas Passacaglia.wav" WAVE TRACK 06 AUDIO TITLE "Christmas Passacaglia" PERFORMER "David Tanenbaum" INDEX 01 00:00:00 TRACK 07 AUDIO TITLE "God Rest Ye Merry Gentlemen" PERFORMER "Taj Mahal" INDEX 00 03:49:40FILE "07 - Taj Mahal - God Rest Ye Merry Gentlemen.wav" WAVE INDEX 01 00:00:00 TRACK 08 AUDIO TITLE "Christmas Medley" PERFORMER "Yomo Toro" INDEX 00 02:20:05FILE "08 - Yomo Toro - Christmas Medley.wav" WAVE INDEX 01 00:00:00 TRACK 09 AUDIO TITLE "Joy to the World" PERFORMER "Terre Roche" INDEX 00 04:10:45FILE "09 - Terre Roche - Joy to the World.wav" WAVE INDEX 01 00:00:00 TRACK 10 AUDIO TITLE "Winter Wonderland" PERFORMER "Al Kooper" INDEX 00 02:16:50FILE "10 - Al Kooper - Winter Wonderland.wav" WAVE INDEX 01 00:00:00FILE "11 - Emily Remler - We Three Kings.wav" WAVE TRACK 11 AUDIO TITLE "We Three Kings" PERFORMER "Emily Remler" INDEX 01 00:00:00 TRACK 12 AUDIO TITLE "Taqasim for the Magi" PERFORMER "Gerald Trimble" INDEX 00 03:20:58FILE "12 - Gerald Trimble - Taqasim for the Magi.wav" WAVE INDEX 01 00:00:00 TRACK 13 AUDIO TITLE "Little Drummer Boy" PERFORMER "Nina Gerber" INDEX 00 03:00:48FILE "13 - Nina Gerber - Little Drummer Boy.wav" WAVE INDEX 01 00:00:00 TRACK 14 AUDIO TITLE "Wind Through the Olive Trees" PERFORMER "Terry Garthwaite" INDEX 00 02:14:20FILE "14 - Terry Garthwaite - Wind Through the Olive Trees.wav" WAVE INDEX 01 00:00:00 TRACK 15 AUDIO TITLE "The Christmas Song" PERFORMER "Michelle Shocked" INDEX 00 01:52:15FILE "15 - Michelle Shocked - The Christmas Song.wav" WAVE INDEX 01 00:00:00FILE "16 - Josh Renbourn - I Saw Three Ships.wav" WAVE TRACK 16 AUDIO TITLE "I Saw Three Ships" PERFORMER "Josh Renbourn" INDEX 01 00:00:00 TRACK 17 AUDIO TITLE "What Child Is This" PERFORMER "Larry Coryell" INDEX 00 01:48:25FILE "17 - Larry Coryell - What Child Is This.wav" WAVE INDEX 01 00:00:00 TRACK 18 AUDIO TITLE "Break Forth, O Beauteous Heav'nly Light" PERFORMER "Scott Johnson" INDEX 00 01:56:53FILE "18 - Scott Johnson - Break Forth, O Beauteous Heav'nly Light.wav" WAVE INDEX 01 00:00:00 TRACK 19 AUDIO TITLE "Have Yourself a Merry Little Christmas" PERFORMER "John Scofield" INDEX 00 01:22:43FILE "19 - John Scofield - Have Yourself a Merry Little Christmas.wav" WAVE INDEX 01 00:00:00


[torrentc.info]_t_5694960.torrent
Торрент: Зарегистрирован ·  [ 2019-03-13 21:23 ] ·  8559dd9485e21e2570e6c85a0ac5b3983a61beea

19 KB

Статус: проверено
Скачан: 0 раз
Размер: 215 MB
Оценка: 
(Голосов: 0)
Сказали спасибо: 0  Спасибо
Похожие темы
[Профиль]    [ЛС]
Показать сообщения:    
Ответить на тему

Текущее время: Сегодня 14:54

Часовой пояс: GMT + 7



Вы не можете начинать темы
Вы не можете отвечать на сообщения
Вы не можете редактировать свои сообщения
Вы не можете удалять свои сообщения
Вы не можете голосовать в опросах
Вы не можете прикреплять файлы к сообщениям
Вы можете скачивать файлы