(Pagan Black Metal) [CD] Slavland - Echa Wiekow Pradawnych - 2007, FLAC (image+.cue), lossless

Reply to topic
DL-List and Torrent activity [Update пиров]
Size:  338 MB   |    Registered:  8 months 8 days   |    Completed:  0 times

Seeder not seen: Never

 
   
 
 
 
Author Message

Генри

Post 12-Mar-2019 03:22

[Quote]

Slavland -2007 - Echa Wiekow Pradawnych
Жанр: Pagan Black Metal
Носитель: CD
Страна-производитель диска (релиза): Poland
Год издания: 2007
Издатель (лейбл): Eastside
Номер по каталогу: escd 040
Страна исполнителя (группы): Poland
Аудиокодек: FLAC (*.flac)
Тип рипа: image+.cue
Битрейт аудио: lossless
Продолжительность: 50:51
Источник: собственный рип
Наличие сканов в содержимом раздачи: да, 600dpi
Треклист:
1. Zmierzch Fałszywych Proroków 5:50
2. Na Rozdrożu 7:47
3. Pieśń Żerców 2:22
4. Płomień Wzgardy 6:43
5. W Starożytnym Gardźcu 2:44
6. Siła Wiary, Triumf Woli 5:54
7. Goreją Wici 3:19
8. Wilcze Pragnienie 5:18
9. Łużyc 1:51
10. A Nienawiść Wciąż Płonie 5:05
11. Wiec 1:38
12. Przesilenie 2:20

Лог создания рипа

Exact Audio Copy V1.0 beta 4 from 7. December 2014
Отчёт EAC об извлечении, выполненном 25. февраля 2019, 20:21
Slavland / Echa Wiekow Pradawnych
Дисковод: PIONEER BD-RW BDR-207D Adapter: 1 ID: 0
Режим чтения : ДостоверностьИспользование точного потока : ДаОтключение кэша аудио : ДаИспользование указателей C2 : Нет
Коррекция смещения при чтении : 667Способность читать области Lead-in и Lead-out : НетЗаполнение пропущенных сэмплов тишиной : ДаУдаление блоков с тишиной в начале и конце : НетПри вычислениях CRC использовались нулевые сэмплы : ДаИнтерфейс : Встроенный Win32-интерфейс для Win NT/2000
Выходной формат : Пользовательский кодировщикВыбранный битрейт : 1024 kBit/sКачество : ВысокийДобавление ID3-тега : НетУтилита сжатия : C:\Program Files (x86)\Exact Audio Copy\Flac\flac.exeДополнительные параметры : -V -8 -T "Date=%year%" -T "Genre=%genre%" %source%
TOC извлечённого CD
Трек | Старт | Длительность | Начальный сектор | Конечный сектор --------------------------------------------------------------------- 1 | 0:00.00 | 5:50.59 | 0 | 26308 2 | 5:50.59 | 7:47.67 | 26309 | 61400 3 | 13:38.51 | 2:22.58 | 61401 | 72108 4 | 16:01.34 | 6:43.27 | 72109 | 102360 5 | 22:44.61 | 2:44.22 | 102361 | 114682 6 | 25:29.08 | 5:54.39 | 114683 | 141271 7 | 31:23.47 | 3:19.12 | 141272 | 156208 8 | 34:42.59 | 5:18.04 | 156209 | 180062 9 | 40:00.63 | 1:51.45 | 180063 | 188432 10 | 41:52.33 | 5:05.54 | 188433 | 211361 11 | 46:58.12 | 1:38.15 | 211362 | 218726 12 | 48:36.27 | 2:20.05 | 218727 | 229231
Характеристики диапазона извлечения и сообщения об ошибках
Выбранный диапазон
Имя файла F:\BFM\Slavland - Echa Wiekow Pradawnych\Slavland - Echa Wiekow Pradawnych.wav
Пиковый уровень 100.0 % Скорость извлечения 7.2 X Качество диапазона 99.9 % CRC теста 9E84C2C4 CRC копии 9E84C2C4 Копирование... OK
Ошибок не произошло
AccurateRip: сводка
Трек 1 отсутствует в базе данныхТрек 2 отсутствует в базе данныхТрек 3 отсутствует в базе данныхТрек 4 отсутствует в базе данныхТрек 5 отсутствует в базе данныхТрек 6 отсутствует в базе данныхТрек 7 отсутствует в базе данныхТрек 8 отсутствует в базе данныхТрек 9 отсутствует в базе данныхТрек 10 отсутствует в базе данныхТрек 11 отсутствует в базе данныхТрек 12 отсутствует в базе данных
Ни одного трека нет в базе AccurateRip
Конец отчёта
==== Контрольная сумма отчёта 918D655052A9126B05EEB6CAFE88DC4D7A9F5838B3896F0E6939BEC256923119 ====

Об исполнителе (группе)

http://www.metal-archives.com/bands/Slavland/15868

Состав

Belzagor - Everything


[geo-torrent.biz]_t_5695914.torrent
Torrent: Registered ·  [ 2019-03-12 03:20 ] ·  841508eee736d12c36b0cedc9912bbc8bcb4136d

14 KB

Status: checked
Completed: 0 times
Size: 338 MB
Rating: 
(Votes: 0)
Say thanks: 0  Thanks
Похожие темы
[Profile]    [PM]
Display posts from previous:    
Reply to topic

The time now is: Today 14:21

All times are GMT + 7 Hours



You cannot post new topics in this forum
You cannot reply to topics in this forum
You cannot edit your posts in this forum
You cannot delete your posts in this forum
You cannot vote in polls in this forum
You cannot attach files in this forum
You can download files in this forum