(Blues, Rock) [CD] Удачное Приобретение - Live 74 - 2000, FLAC (image+.cue), lossless

Ответить на тему
Статистика раздачи [Обновить пиров]
Размер:  159 MB   |    Зарегистрирован:  13 дней   |    Скачан:  0 раз

Полного источника не было: Никогда

 
   
 
 
 
Автор Сообщение

Мых

Создавать темы 11-Мар-2019 19:40

[Цитировать]

Удачное Приобретение / Live 74
Жанр: Blues, Rock
Носитель: CD
Страна-производитель диска (релиза): Россия
Год издания: 2000
Издатель (лейбл): SoLyd Records
Номер по каталогу: SLR 0232
Страна исполнителя (группы): Россия (СССР)
Аудиокодек: FLAC (*.flac)
Тип рипа: image+.cue
Битрейт аудио: lossless
Продолжительность: 00:39:35
Источник: собственный рип
Наличие сканов в содержимом раздачи: да
Треклист:
1. Talk with you
2. Great balls of fire
3. I've got the blues
4. Someday
5. Sweet little rock n roller
6. You've got me flying
7. The fish the blues
8. Under assistance west coast promotion man
9. Room full of mirrors
10. Someday baby

Лог создания рипа

Exact Audio Copy V1.3 from 2. September 2016
Отчёт EAC об извлечении, выполненном 21. февраля 2019, 9:34
Удачное Приобретение / Live 74
Дисковод: ATAPI iHAS122 C Adapter: 1 ID: 0
Режим чтения : ДостоверностьИспользование точного потока : ДаОтключение кэша аудио : ДаИспользование указателей C2 : Нет
Коррекция смещения при чтении : 6Способность читать области Lead-in и Lead-out : НетЗаполнение пропущенных сэмплов тишиной : ДаУдаление блоков с тишиной в начале и конце : НетПри вычислениях CRC использовались нулевые сэмплы : ДаИнтерфейс : Встроенный Win32-интерфейс для Win NT/2000
Выходной формат : Пользовательский кодировщикВыбранный битрейт : 768 kBit/sКачество : ВысокийДобавление ID3-тега : НетУтилита сжатия : C:\Program Files\Exact Audio Copy\FLAC\FLAC.EXEДополнительные параметры : -6 -V -T "ARTIST=%artist%" -T "TITLE=%title%" -T "ALBUM=%albumtitle%" -T "DATE=%year%" -T "TRACKNUMBER=%tracknr%" -T "GENRE=%genre%" -T "COMMENT=%comment%" -T "BAND=%albuminterpret%" -T "ALBUMARTIST=%albuminterpret%" -T "COMPOSER=%composer%" %haslyrics%--tag-from-file=LYRICS="%lyricsfile%"%haslyrics% -T "DISCNUMBER=%cdnumber%" -T "TOTALDISCS=%totalcds%" -T "TOTALTRACKS=%numtracks%" %hascover%--picture="%coverfile%"%hascover% %source% -o %dest%
TOC извлечённого CD
Трек | Старт | Длительность | Начальный сектор | Конечный сектор --------------------------------------------------------------------- 1 | 0:00.02 | 2:28.21 | 2 | 11122 2 | 2:28.23 | 2:31.45 | 11123 | 22492 3 | 4:59.68 | 7:35.46 | 22493 | 56663 4 | 12:35.39 | 2:41.35 | 56664 | 68773 5 | 15:16.74 | 1:39.32 | 68774 | 76230 6 | 16:56.31 | 3:00.38 | 76231 | 89768 7 | 19:56.69 | 5:15.36 | 89769 | 113429 8 | 25:12.30 | 1:56.46 | 113430 | 122175 9 | 27:09.01 | 5:58.38 | 122176 | 149063 10 | 33:07.39 | 6:27.05 | 149064 | 178093
Характеристики диапазона извлечения и сообщения об ошибках
Выбранный диапазон
Имя файла D:\Музыка\Удачное Приобретение - Live 74 (2000, SoLyd Records)\Удачное Приобретение - Live 74.wav
Пиковый уровень 100.0 % Скорость извлечения 5.3 X Качество диапазона 100.0 % CRC теста 815E875C CRC копии 815E875C Копирование... OK
Ошибок не произошло
AccurateRip: сводка
Трек 1 отсутствует в базе данныхТрек 2 отсутствует в базе данныхТрек 3 отсутствует в базе данныхТрек 4 отсутствует в базе данныхТрек 5 отсутствует в базе данныхТрек 6 отсутствует в базе данныхТрек 7 отсутствует в базе данныхТрек 8 отсутствует в базе данныхТрек 9 отсутствует в базе данныхТрек 10 отсутствует в базе данных
Ни одного трека нет в базе AccurateRip
Конец отчёта
---- CUETools DB Plugin V2.1.6
[CTDB TOCID: Chz2Avakwy4bcDdlG3Wl6beJRFI-] disk not present in databaseSubmit result: Chz2Avakwy4bcDdlG3Wl6beJRFI- has been uploaded

Об исполнителе (группе)

Удачное приобретение - советская и российская группа, исполняющая блюз. Основана в 1969 году Алексеем Беловым, Владимиром Матецким и Михаилом Соколовым. Одна из первых блюзовых групп в СССР: http://ru.wikipedia.org/wiki/%D0%A3%D0%B4%D0%B0%D1%87%D0%BD%D0%BE%D0%B5_%D0%BF%D...0%BD%D0%B8%D0%B5.

Состав

Alexander Mikoyan - guitar, harmonica
Alexey "White" Belov - guitar, vocals
Vladimir Matetsky - bass
Michael "Petrovich" Sokolov - drums


[torrentc.info]_t_5692907.torrent
Торрент: Зарегистрирован ·  [ 2019-03-11 19:32 ] ·  a756b771078e5db46f851320d0b337e11f1de073

13 KB

Статус: проверено
Скачан: 0 раз
Размер: 159 MB
Оценка: 
(Голосов: 0)
Сказали спасибо: 0  Спасибо
Похожие темы
[Профиль]    [ЛС]
Показать сообщения:    
Ответить на тему

Текущее время: Сегодня 14:59

Часовой пояс: GMT + 7



Вы не можете начинать темы
Вы не можете отвечать на сообщения
Вы не можете редактировать свои сообщения
Вы не можете удалять свои сообщения
Вы не можете голосовать в опросах
Вы не можете прикреплять файлы к сообщениям
Вы можете скачивать файлы