55 passi nel sole [2019, Pop, Web-DL, 1080p]

Ответить на тему
Статистика раздачи [Обновить пиров]
Размер:  4.72 GB   |    Зарегистрирован:  13 дней   |    Скачан:  0 раз

Полного источника не было: Никогда

 
   
 
 
 
Автор Сообщение

Пушистый

Создавать темы 11-Мар-2019 19:35

[Цитировать]

55 passi nel sole
Жанр: Pop
Продолжительность: 02:00:58
Год выхода: 2019
Описание: "55 passi nel sole" - концерт, посвящённый 55-летней карьере итальянского эстрадного певца Альбано Карризи. Шоу транслировалось в течение двух вечеров на Canale 5 HD c привлечением многочисленных гостей (Ricchi e Poveri, Toto Cutugno, Pupo, Raimondo Cataldo, The Kolors, Alex Britti, Fabrizio Moro, Beppe Fiorello, Gigliola Cinquetti и др.), среди которых конечно же была и бывшая супруга артиста Ромина Пауэр. Без сомнения, пара певцов оставила неизгладимый след в итальянской музыке с 1964 года. В раздаче оставлены только выступления артистов.
Качество: Web-DL
Разрешение видео/развертка: 1080p
Формат файла: MKV
Видео кодек: H.264
Аудио кодек: AC3
Видео: H.264, 1920x1080, 5157 Кбит/сек, 25.000 кадров/сек
Аудио: AC3, 320 Кбит/сек, 48,0 КГц, 2 канала
Разбивка на главы: есть

Треклист

01. Al Bano - E' la mia vita02. Al Bano e Romina Power - Ci sarà03. Al Bano - Di rose e di spine04. Ricchi e Poveri- Sarà perchè ti amo05. Toto Cutugno - Solo noi06. Pupo - Su di noi07. Al Bano e Romina Power - Nostalgia canaglia08. Pupo, Ricchi e Poveri, Toto Cutugno, Al Bano e Romina Power - Popuri09. Alex Britti e Al Bano - Vecchio Sam10. Al Bano - Nel sole11. Al Bano e Toto Cutugno- Soli12. Al Bano - Azzurro13. Al Bano - Un grande amico, Mogol14. Al Bano e Romina Power - Bussa ancora15. Al Bano - Una radio antica16. Al Bano e Fabrizio Moro - Amanda è libera17. Al Bano e Romina Power - Oggi sposi18. Yari Carrisi e Romina Power - Un regalo per Al Bano19. Al Bano e Romina Power - Sempre sempre20. Beppe Fiorello, Al Bano e Romina - Nel blu dipinto di blu21. Al Bano e The Kolors- Madre mia22. Romina Power - Il ballo del Qua Qua23. Al Bano e Romina Power - E fu subito amore24. Al Bano e Orietta Berti - Quando l'amore diventa poesia25. Al Bano e The Kolors - Il mondo26. Al Bano e Romina Power - Felicità27. Al Bano e Romina Power - Sharazan28. Al Bano e Gigliola Cinquetti - Alle porte del sole29. Al Bano e Romina Power - I cigni di Balaka30. Al Bano e Maryam Tancredi - Verso il sole31. Al Bano, Yari Carrisi e Raimondo - Allelujah32. Al Bano e Romina Power - Popuri33. Al Bano e & Co - Vieni nel sole

Отчёт MediaInfo / BDInfo

ОбщееУникальный идентификатор : 72000977501122798987025252957033534992 (0x362AE2449D03854E818324CF94CF1610)Полное имя : E:\55 passi nel sole.mkvФормат файла : MatroskaВерсия формата : Version 4 / Version 2Размер файла : 4,72 ГбайтПродолжительность : 2 ч. 0 м.Общий поток : 5588 Кбит/секДата кодирования : UTC 2019-02-02 21:37:41Программа кодирования : TMPGEnc MPEG Smart Renderer 5 Version 5.0.19.25Библиотека кодирования : TMPGEnc MPEG Smart Renderer 5 Version 5.0.19.25
ВидеоИдентификатор : 1Формат файла : AVCФормат файла/Информация : Advanced Video CodecПрофиль формата : High@L4Параметр CABAC формата : ДаПараметр ReFrames формата : 4 кадраИдентификатор кодека : V_MPEG4/ISO/AVCПродолжительность : 2 ч. 0 м.Битрейт : 5157 Кбит/секШирина : 1920 пикселейВысота : 1080 пикселейСоотношение сторон : 16:9Режим частоты кадров : ПостоянныйЧастота кадров : 25,000 кадров/секСтандарт вещания : ComponentЦветовое пространство : YUVСубдискретизация насыщенности : 4:2:0Битовая глубина : 8 битТип развёртки : ПрогрессивнаяБит/(Пиксели*Кадры) : 0.099Размер потока : 4,36 Гбайт (92%)Default : ДаForced : НетЦветовой диапазон : LimitedОсновные цвета : BT.709Характеристики трансфера : BT.709Коэффициенты матрицы : BT.709
АудиоИдентификатор : 2Формат файла : AC-3Формат файла/Информация : Audio Coding 3Расширение режима : CM (complete main)Параметр Endianness формата : BigИдентификатор кодека : A_AC3Продолжительность : 2 ч. 0 м.Вид битрейта : ПостоянныйБитрейт : 320 Кбит/секКаналы : 2 каналаРасположение каналов : Front: L RЧастота : 48,0 КГцМетод сжатия : С потерямиРазмер потока : 277 Мбайт (6%)Язык : ItalianDefault : ДаForced : Нет
Меню

Скриншоты




[torrentc.info]_t_5684166.torrent
Торрент: Зарегистрирован ·  [ 2019-03-11 19:32 ] ·  4852f9f7bafdce6d049a3689e3492eb63c81a1dd

24 KB

Статус: проверено
Скачан: 0 раз
Размер: 4.72 GB
Оценка: 
(Голосов: 0)
Сказали спасибо: 0  Спасибо
Похожие темы
[Профиль]    [ЛС]
Показать сообщения:    
Ответить на тему

Текущее время: Сегодня 14:52

Часовой пояс: GMT + 7



Вы не можете начинать темы
Вы не можете отвечать на сообщения
Вы не можете редактировать свои сообщения
Вы не можете удалять свои сообщения
Вы не можете голосовать в опросах
Вы не можете прикреплять файлы к сообщениям
Вы можете скачивать файлы