(Retro. Сов. эстрада) [CD]VA - Песни о Сталине (4 СД, издание АВТ+Т, 2000-2001) , WavPack (image+.cue), lossless

Ответить на тему
Статистика раздачи [Обновить пиров]
Размер:  1.06 GB   |    Зарегистрирован:  14 дней   |    Скачан:  1 раз

Полного источника не было: 10 дней

 
   
 
 
 
Автор Сообщение

Roni

Создавать темы 11-Мар-2019 13:13

[Цитировать]

Various Artists - Песни о Сталине (4 сд, издание АВТ+Т, 2000-2001)
Серия Советская официальная песня
Жанр: Retro. Сов. эстрада, Официальная песня
Носитель: CD
Страна-производитель диска (релиза): Россия
Год издания: 2000-2001
Издатель (лейбл): АВТ+Т
Номер по каталогу: AVT-04 по AVT-01
Страна исполнителя (группы): СССР
Аудиокодек: WavPack (*.wv)
Тип рипа: image+.cue
Битрейт аудио: lossless
Продолжительность: 04ч 25м
Источник: собственный рип изданий из коллекции
Наличие сканов в содержимом раздачи: да

Я другой такой страны не знаю. Песни о Сталине, большевиках и социализме (01:10:24)

01. Ансамбль песни и пляски имени А.В. Александрова / Песня о партии [0:03:13.12]
02. Пионерский ансамбль / Песня про Павлика Морозова [0:03:13.25]
03. Пётр Киричек, Оркестр под управлением П.Алексеева / Песня о чекистах [0:02:05.60]
04. И.Янзем / Соколы [0:02:22.05]
05. Владимир Канделаки, Хор и оркестр театра им. В.И.Немировича-Данченко, / Мы будем, как Ленин [0:02:48.03]
06. Сергей Лемешев, Оркестр народных инструментов под управлением С.Горчакова / Россия [0:02:41.67]
07. Ансамбль песни и пляски имени А.В. Александрова / Песня о Сталине [0:03:10.68]
08. В.Бунчиков, В. Нечаев, Оркестр под управлением В.Кнушевицкого / Праздничная [0:03:02.15]
09. Ансамбль песни и пляски имени А.В. Александрова / Нас не трогай! [0:02:53.00]
10. Ансамбль песни и пляски имени А.В. Александрова / Жить стало лучше [0:02:15.17]
11. Детский ансамбль профсоюза шоферов / Песня о Сталине [0:02:24.58]
12. Ансамбль песни и пляски имени А.В. Александрова / Святое ленинское знамя [0:02:43.07]
13. Иван Шмелёв, Ансамбль песни и пляски НКВД СССР под управлением З.О.Дунаевского / Запевай песьню звонкую [0:03:04.05]
14. Ансамбль песни и пляски НКВД СССР под управлением З.О.Дунаевского / Вставай, патриот! [0:03:04.38]
15. Профсоюзный ансамбль песни и пляски под управлением Г.Лицвенко / Не скосить нас саблей острой [0:02:21.50]
16. Марк Рейзен / Песня артеллеристов [0:02:19.27]
17. Ансамбль песни и пляски имени А.В. Александрова / Несокрушимая и легендарная [0:02:59.00]
18. В. Борисенко, Оркестр под управлением И.Дунаевского / Песня о Москве [0:03:03.28]
19. Марк Рейзен, Оркестр под управлением И.Дунаевского / Песня о Родине [0:03:20.32]
20. В. Нечаев, В. Бунчиков, Оркестр под управлением В.Кнушевицкого / Москва [0:02:38.43]
21. Ансамбль песни и пляски имени А.В. Александрова / Песня о Сталине [0:03:12.30]
22. И.Янзем, В. Флоров / Советский, простой человек [0:02:36.12]
23. В. Нечаев, В. Бунчиков, Оркестр под управлением В.Кнушевицкого / Спасибо, великий учитель [0:03:11.65]
24. Пётр Киричек / Наш тост [0:02:30.73]
25. Ансамбль песни и пляски имени А.В. Александрова / Гимн СССР [0:03:08.10]

Лог создания рипа

Exact Audio Copy V1.3 from 2. September 2016
EAC extraction logfile from 3. March 2019, 13:54
Various Artists / Я другой такой страны не знаю. Песни о Сталине, большевиках и социализме
Used drive : PLEXTOR DVDR PX-L890SA Adapter: 1 ID: 0
Read mode : SecureUtilize accurate stream : YesDefeat audio cache : YesMake use of C2 pointers : No
Read offset correction : 6Overread into Lead-In and Lead-Out : NoFill up missing offset samples with silence : YesDelete leading and trailing silent blocks : NoNull samples used in CRC calculations : YesUsed interface : Native Win32 interface for Win NT & 2000
Used output format : User Defined EncoderSelected bitrate : 1024 kBit/sQuality : HighAdd ID3 tag : NoCommand line compressor : C:\Program Files (x86)\Exact Audio Copy\wavpack.exeAdditional command line options : -lm %source%
TOC of the extracted CD
Track | Start | Length | Start sector | End sector --------------------------------------------------------- 1 | 0:00.25 | 3:13.12 | 25 | 14511 2 | 3:13.37 | 3:13.25 | 14512 | 29011 3 | 6:26.62 | 2:05.60 | 29012 | 38446 4 | 8:32.47 | 2:22.05 | 38447 | 49101 5 | 10:54.52 | 2:48.03 | 49102 | 61704 6 | 13:42.55 | 2:41.67 | 61705 | 73846 7 | 16:24.47 | 3:10.68 | 73847 | 88164 8 | 19:35.40 | 3:02.15 | 88165 | 101829 9 | 22:37.55 | 2:53.00 | 101830 | 114804 10 | 25:30.55 | 2:15.17 | 114805 | 124946 11 | 27:45.72 | 2:24.58 | 124947 | 135804 12 | 30:10.55 | 2:43.07 | 135805 | 148036 13 | 32:53.62 | 3:04.05 | 148037 | 161841 14 | 35:57.67 | 3:04.38 | 161842 | 175679 15 | 39:02.30 | 2:21.50 | 175680 | 186304 16 | 41:24.05 | 2:19.27 | 186305 | 196756 17 | 43:43.32 | 2:59.00 | 196757 | 210181 18 | 46:42.32 | 3:03.28 | 210182 | 223934 19 | 49:45.60 | 3:20.32 | 223935 | 238966 20 | 53:06.17 | 2:38.43 | 238967 | 250859 21 | 55:44.60 | 3:12.30 | 250860 | 265289 22 | 58:57.15 | 2:36.12 | 265290 | 277001 23 | 61:33.27 | 3:11.65 | 277002 | 291391 24 | 64:45.17 | 2:30.73 | 291392 | 302714 25 | 67:16.15 | 3:08.10 | 302715 | 316824
Range status and errors
Selected range
Filename D:\wwphil\Я другой такой страны не знаю. Песни о Сталине, большевиках и социализме\Я другой такой страны не знаю. Песни о Сталине, большевиках и социализме.wav
Peak level 92.3 % Extraction speed 10.0 X Range quality 99.9 % Test CRC DB91FBFC Copy CRC DB91FBFC Copy OK
No errors occurred
AccurateRip summary
Track 1 accurately ripped (confidence 1) [9485D308] (AR v2)Track 2 accurately ripped (confidence 1) [68E9D4BF] (AR v2)Track 3 accurately ripped (confidence 1) [1E66FD9A] (AR v2)Track 4 accurately ripped (confidence 1) [154D375C] (AR v2)Track 5 accurately ripped (confidence 1) [455081D9] (AR v2)Track 6 accurately ripped (confidence 1) [34FE64F0] (AR v2)Track 7 accurately ripped (confidence 1) [463AD9E6] (AR v2)Track 8 accurately ripped (confidence 1) [0C9B0237] (AR v2)Track 9 accurately ripped (confidence 1) [FD6FB811] (AR v2)Track 10 accurately ripped (confidence 1) [19EED071] (AR v2)Track 11 accurately ripped (confidence 1) [2593CCBE] (AR v2)Track 12 accurately ripped (confidence 1) [2B1FD3F1] (AR v2)Track 13 accurately ripped (confidence 1) [23270CBE] (AR v2)Track 14 accurately ripped (confidence 1) [FB8E4A7C] (AR v2)Track 15 accurately ripped (confidence 1) [A8B221E0] (AR v2)Track 16 accurately ripped (confidence 1) [03A5BE70] (AR v2)Track 17 accurately ripped (confidence 1) [D8400DBE] (AR v2)Track 18 accurately ripped (confidence 1) [D178CDDB] (AR v2)Track 19 accurately ripped (confidence 1) [82A4E8E6] (AR v2)Track 20 accurately ripped (confidence 1) [A9892901] (AR v2)Track 21 accurately ripped (confidence 1) [572230CF] (AR v2)Track 22 accurately ripped (confidence 1) [D497F2F6] (AR v2)Track 23 accurately ripped (confidence 1) [F40C4081] (AR v2)Track 24 accurately ripped (confidence 1) [C55833A8] (AR v2)Track 25 accurately ripped (confidence 1) [0ECECC82] (AR v2)
All tracks accurately ripped
End of status report
==== Log checksum D50656F1F1D796CE46E94E5DE905C589FD4B3FD83FD6B2D254F7D1B8B75F64CC ====

Лог проверки качества

fooCDtect - foobar2000 + auCDtect, baralgin.
auCDtect: CD records authenticity detector, version 0.8.2Copyright (c) 2004 Oleg Berngardt. All rights reserved.Copyright (c) 2004 Alexander Djourik. All rights reserved.
mode: 0
=========================================== Track: Я другой такой страны не знаю. Песни о Сталине, большевиках и социализме Quality: CDDA 100%===========================================

Скриншот спектра частот

Как вернее бить врагов. Песни о Сталине 2 (01:02:39)

01. Дм. Покрасс и железнодорожный джаз-оркестр / Если завтра война [0:02:43.55]
02. Хор и оркестр ГАБТ / Казачья песня [0:02:55.40]
03. П. Киричек с образцово-показательным оркестром НКО СССР / Физкультурная боевая песня [0:02:24.30]
04. П. Киричек с оркестром п/у Алексеева / Песня о столице [0:02:59.15]
05. Воронежский русский народный хор / Благодарственная товарищу Сталину [0:03:05.05]
06. В.П. Захаров / Московская колхозная [0:02:50.30]
07. Ансамбль п/у Кувыкина / Пионерский дворец [0:02:20.22]
08. Ансамбль п/у Кувыкина / Песня физкультурников [0:02:41.48]
09. Л. Утёсов и джаз-оркестр / Лейся, песня [0:02:27.10]
10. Воронежский русский народный хор / Колхозная здравица Сталину [0:02:42.40]
11. Краснознамённый ансамбль п/у. Александрова / Казачья Сталинская [0:02:59.20]
12. Краснознамённый ансамбль п/у. Александрова / Песня о наркоме Тимошенко [0:02:43.57]
13. С. Хромченко хор п/у А. Крынкина и оркестр НКВД / На врага! За Родину, вперед! [0:02:35.70]
14. П. Киричек с образцово-показательныморкестром НКО СССР / И не раз, и не два [0:02:30.73]
15. Центральный ансамбль песни и пляски Военно-Морского флота СССР / Морская гвардия [0:02:59.35]
16. П. Киричек, хор п/у А. Крынкина и оркестр НКВД / Будем драться до победы [0:02:48.15]
17. П. Киричек, хор п/у А. Крынкина и оркестр НКВД / Боевая пехотная [0:02:34.07]
18. Волчков и Центральный ансамбль песни и пляски Военно-Морского флота СССР / Клятва наркому [0:02:28.50]
19. Краснознамённый ансамбль п/у. Александрова / Как вернее бить врагов [0:02:41.15]
20. Краснознамённый ансамбль п/у. Александрова / Шире шаг [0:02:15.38]
21. П. Киричек с образцово-показательныморкестром НКО СССР / Песня артиллеристов [0:02:58.22]
22. И. Кулешов и ансамбль песни и пляски МВО / Краснофлотский марш [0:03:03.73]
23. И. Кулешов и ансамбль песни и пляски МВО / Боевая Сталинская [0:02:28.50]
24. Зслуженная капелла Думка УРСР и симфонический оркестр Украины / Пiсня про Сталiна [0:02:34.27]
25. Ансамбль ВРК п/у Кувыкина / Славься, Советская наша страна [0:02:45.40]

Лог создания рипа

Exact Audio Copy V1.3 from 2. September 2016
EAC extraction logfile from 3. March 2019, 18:06
Various Artisits / Как вернее бить врагов. Песни о Сталине 2
Used drive : PLEXTOR DVDR PX-L890SA Adapter: 1 ID: 0
Read mode : SecureUtilize accurate stream : YesDefeat audio cache : YesMake use of C2 pointers : No
Read offset correction : 6Overread into Lead-In and Lead-Out : NoFill up missing offset samples with silence : YesDelete leading and trailing silent blocks : NoNull samples used in CRC calculations : YesUsed interface : Native Win32 interface for Win NT & 2000
Used output format : User Defined EncoderSelected bitrate : 1024 kBit/sQuality : HighAdd ID3 tag : NoCommand line compressor : C:\Program Files (x86)\Exact Audio Copy\wavpack.exeAdditional command line options : -lm %source%
TOC of the extracted CD
Track | Start | Length | Start sector | End sector --------------------------------------------------------- 1 | 0:00.00 | 2:43.55 | 0 | 12279 2 | 2:43.55 | 2:55.40 | 12280 | 25444 3 | 5:39.20 | 2:24.30 | 25445 | 36274 4 | 8:03.50 | 2:59.15 | 36275 | 49714 5 | 11:02.65 | 3:05.05 | 49715 | 63594 6 | 14:07.70 | 2:50.30 | 63595 | 76374 7 | 16:58.25 | 2:20.22 | 76375 | 86896 8 | 19:18.47 | 2:41.48 | 86897 | 99019 9 | 22:00.20 | 2:27.10 | 99020 | 110054 10 | 24:27.30 | 2:42.40 | 110055 | 122244 11 | 27:09.70 | 2:59.20 | 122245 | 135689 12 | 30:09.15 | 2:43.57 | 135690 | 147971 13 | 32:52.72 | 2:35.70 | 147972 | 159666 14 | 35:28.67 | 2:30.73 | 159667 | 170989 15 | 37:59.65 | 2:59.35 | 170990 | 184449 16 | 40:59.25 | 2:48.15 | 184450 | 197064 17 | 43:47.40 | 2:34.07 | 197065 | 208621 18 | 46:21.47 | 2:28.50 | 208622 | 219771 19 | 48:50.22 | 2:41.15 | 219772 | 231861 20 | 51:31.37 | 2:15.38 | 231862 | 242024 21 | 53:47.00 | 2:58.22 | 242025 | 255396 22 | 56:45.22 | 3:03.73 | 255397 | 269194 23 | 59:49.20 | 2:28.50 | 269195 | 280344 24 | 62:17.70 | 2:34.27 | 280345 | 291921 25 | 64:52.22 | 2:45.40 | 291922 | 304336
Range status and errors
Selected range
Filename D:\wwphil\Как вернее бить врагов. Песни о Сталине 2\Various Artisits - Как вернее бить врагов. Песни о Сталине 2.wav
Peak level 86.2 % Extraction speed 10.1 X Range quality 100.0 % Test CRC E1E7AF5D Copy CRC E1E7AF5D Copy OK
No errors occurred
AccurateRip summary
Track 1 accurately ripped (confidence 1) [01552D4E] (AR v2)Track 2 accurately ripped (confidence 1) [02A4E9CB] (AR v2)Track 3 accurately ripped (confidence 1) [73FBFBCF] (AR v2)Track 4 accurately ripped (confidence 1) [F2B497B9] (AR v2)Track 5 accurately ripped (confidence 1) [26E96A28] (AR v2)Track 6 accurately ripped (confidence 1) [825DB28A] (AR v2)Track 7 accurately ripped (confidence 1) [67A1D783] (AR v2)Track 8 accurately ripped (confidence 1) [2731C1E5] (AR v2)Track 9 accurately ripped (confidence 1) [21395848] (AR v2)Track 10 accurately ripped (confidence 1) [54B78396] (AR v2)Track 11 accurately ripped (confidence 1) [53167D0D] (AR v2)Track 12 accurately ripped (confidence 1) [1CBD6A51] (AR v2)Track 13 accurately ripped (confidence 1) [E389918F] (AR v2)Track 14 accurately ripped (confidence 1) [CE09D513] (AR v2)Track 15 accurately ripped (confidence 1) [6DFD6346] (AR v2)Track 16 accurately ripped (confidence 1) [7EFA53C2] (AR v2)Track 17 accurately ripped (confidence 1) [9F305951] (AR v2)Track 18 accurately ripped (confidence 1) [6372CD98] (AR v2)Track 19 accurately ripped (confidence 1) [1BABC3E8] (AR v2)Track 20 accurately ripped (confidence 1) [373464B8] (AR v2)Track 21 accurately ripped (confidence 1) [0F6AA9EA] (AR v2)Track 22 accurately ripped (confidence 1) [450E7515] (AR v2)Track 23 accurately ripped (confidence 1) [05DC556F] (AR v2)Track 24 accurately ripped (confidence 1) [9E6DEDB3] (AR v2)Track 25 accurately ripped (confidence 1) [33836B64] (AR v2)
All tracks accurately ripped
End of status report
==== Log checksum F484E0FF7C869732CA8CA293E1227A4238E6EB99549F25BA755786F3F945776F ====

Лог проверки качества

fooCDtect - foobar2000 + auCDtect, baralgin.
auCDtect: CD records authenticity detector, version 0.8.2Copyright (c) 2004 Oleg Berngardt. All rights reserved.Copyright (c) 2004 Alexander Djourik. All rights reserved.
mode: 0
=========================================== Track: Various Artisits - Как вернее бить врагов. Песни о Сталине 2 Quality: CDDA 100%===========================================

Скриншот спектра частот

Вы не суйтесь, самураи! Песни о Сталине 3 (01:02:48)

01. А. Королёв, орк. Госфилармонии / На Дальнем Востоке [0:02:58.42]
02. Детский хор Дома пионеров Стал. р-на Москвы / Спасибо Великому Сталину [0:02:06.74]
03. И. Мищенко балалаечный орк. ЦДКА / Вы не суйтесь, самураи [0:02:48.40]
04. Б. Печковский / Ленинградский выборный марш [0:02:01.27]
05. Т. Антоненко / Письмо пограничникам [0:02:42.58]
06. орк. НКО СССР / Дружба народов СССР [0:02:47.15]
07. анс. песни и пляски им. Александрова / Героическая летная [0:01:58.63]
08. С. Ребриков и балалаечный орк. ЦДКА / Конармейская [0:02:37.01]
09. ансамбль Александрова / Бой у озера Хасан [0:02:33.51]
10. Коля Кутузов и балалаечный орк. ЦДКА / Письмо Ворошилову [0:02:08.16]
11. колх. хор Воронежской обл. / Веселая колхозная [0:02:06.27]
12. Детская хор. капелла ЦДХВ / Железнодорожная пионерская [0:01:33.43]
13. хор ВРК / Песня советских школьников [0:02:54.71]
14. Н. Крючков в сопр. орк. моск. филармонии / Песня о трех танкистах [0:03:04.52]
15. анс. песни и пляски ЛДКА / Песня о луганском слесаре [0:02:05.54]
16. анс. песни и пляски ЛДКА / Маршал Буденный [0:02:39.11]
17. П. Киричек / Достойные славы [0:03:01.27]
18. Хор им. Пятницкого / Песня о М.И.Калинине [0:03:12.09]
19. анс. Александрова / Москва-Пекин [0:03:09.25]
20. П. Киричек и С.Хромченко / Сталинский закон [0:02:22.47]
21. Железнодорожный анс. и хор / Комсомольский паровоз [0:02:03.36]
22. анс. Александрова / Тот, кто любит власть Советов [0:02:02.49]
23. Обьединённый колх. хор Туркмении / Эй, Бабам (Песня о Ленине) [0:02:52.68]
24. Сталин / Из предвыборной речи тов. Сталина [0:01:55.72]
25. В. Селиванов орк. Кнушевицкого / Молодость наша [0А:03:00.14]

Лог создания рипа

Exact Audio Copy V1.3 from 2. September 2016
EAC extraction logfile from 3. March 2019, 14:57
Various Artists / Вы не суйтесь, самураи! Песни о Сталине 3
Used drive : PLEXTOR DVDR PX-L890SA Adapter: 1 ID: 0
Read mode : SecureUtilize accurate stream : YesDefeat audio cache : YesMake use of C2 pointers : No
Read offset correction : 6Overread into Lead-In and Lead-Out : NoFill up missing offset samples with silence : YesDelete leading and trailing silent blocks : NoNull samples used in CRC calculations : YesUsed interface : Native Win32 interface for Win NT & 2000
Used output format : User Defined EncoderSelected bitrate : 1024 kBit/sQuality : HighAdd ID3 tag : NoCommand line compressor : C:\Program Files (x86)\Exact Audio Copy\wavpack.exeAdditional command line options : -lm %source%
TOC of the extracted CD
Track | Start | Length | Start sector | End sector --------------------------------------------------------- 1 | 0:00.00 | 2:58.42 | 0 | 13391 2 | 2:58.42 | 2:06.74 | 13392 | 22915 3 | 5:05.41 | 2:48.40 | 22916 | 35555 4 | 7:54.06 | 2:01.27 | 35556 | 44657 5 | 9:55.33 | 2:42.58 | 44658 | 56865 6 | 12:38.16 | 2:47.15 | 56866 | 69405 7 | 15:25.31 | 1:58.63 | 69406 | 78318 8 | 17:24.19 | 2:37.01 | 78319 | 90094 9 | 20:01.20 | 2:33.51 | 90095 | 101620 10 | 22:34.71 | 2:08.16 | 101621 | 111236 11 | 24:43.12 | 2:06.27 | 111237 | 120713 12 | 26:49.39 | 1:33.43 | 120714 | 127731 13 | 28:23.07 | 2:54.71 | 127732 | 140852 14 | 31:18.03 | 3:04.52 | 140853 | 154704 15 | 34:22.55 | 2:05.54 | 154705 | 164133 16 | 36:28.34 | 2:39.11 | 164134 | 176069 17 | 39:07.45 | 3:01.27 | 176070 | 189671 18 | 42:08.72 | 3:12.09 | 189672 | 204080 19 | 45:21.06 | 3:09.25 | 204081 | 218280 20 | 48:30.31 | 2:22.47 | 218281 | 228977 21 | 50:53.03 | 2:03.36 | 228978 | 238238 22 | 52:56.39 | 2:02.49 | 238239 | 247437 23 | 54:59.13 | 2:52.68 | 247438 | 260405 24 | 57:52.06 | 1:55.72 | 260406 | 269102 25 | 59:48.03 | 3:00.14 | 269103 | 282616
Range status and errors
Selected range
Filename D:\wwphil\Вы не суйтесь, самураи! Песни о Сталине 3\Вы не суйтесь, самураи! Песни о Сталине 3.wav
Peak level 100.0 % Extraction speed 8.7 X Range quality 99.9 % Test CRC C2CD8C1D Copy CRC C2CD8C1D Copy OK
No errors occurred
AccurateRip summary
Track 1 accurately ripped (confidence 1) [D029AD57] (AR v2)Track 2 accurately ripped (confidence 1) [C8D4E26C] (AR v2)Track 3 accurately ripped (confidence 1) [802C6AF9] (AR v2)Track 4 accurately ripped (confidence 1) [1BB8EC8E] (AR v2)Track 5 accurately ripped (confidence 1) [E329801D] (AR v2)Track 6 accurately ripped (confidence 1) [F7795B93] (AR v2)Track 7 accurately ripped (confidence 1) [F37D9F2A] (AR v2)Track 8 accurately ripped (confidence 1) [3128EF11] (AR v2)Track 9 accurately ripped (confidence 1) [12F705B4] (AR v2)Track 10 accurately ripped (confidence 1) [1BF85C91] (AR v2)Track 11 accurately ripped (confidence 1) [1F0008EB] (AR v2)Track 12 accurately ripped (confidence 1) [3059E3F6] (AR v2)Track 13 accurately ripped (confidence 1) [BAEACFB3] (AR v2)Track 14 accurately ripped (confidence 1) [AD19C79D] (AR v2)Track 15 accurately ripped (confidence 1) [DD03F605] (AR v2)Track 16 accurately ripped (confidence 1) [66E62DD1] (AR v2)Track 17 accurately ripped (confidence 1) [A03EC7E1] (AR v2)Track 18 accurately ripped (confidence 1) [6ACFC048] (AR v2)Track 19 accurately ripped (confidence 1) [622794E5] (AR v2)Track 20 accurately ripped (confidence 1) [92906A5D] (AR v2)Track 21 accurately ripped (confidence 1) [3601C5A4] (AR v2)Track 22 accurately ripped (confidence 1) [52A36DBB] (AR v2)Track 23 accurately ripped (confidence 1) [1D13213C] (AR v2)Track 24 accurately ripped (confidence 1) [A9288544] (AR v2)Track 25 accurately ripped (confidence 1) [69C3F834] (AR v2)
All tracks accurately ripped
End of status report
==== Log checksum E4D484282C8FAA6E0FC239D67D0F4F869E537399FBF2997F5EC90B53C746356A ====

Лог проверки качества

fooCDtect - foobar2000 + auCDtect, baralgin.
auCDtect: CD records authenticity detector, version 0.8.2Copyright (c) 2004 Oleg Berngardt. All rights reserved.Copyright (c) 2004 Alexander Djourik. All rights reserved.
mode: 0
=========================================== Track: Вы не суйтесь, самураи! Песни о Сталине 3 Quality: CDDA 100%===========================================

Скриншот спектра частот

Страна выбирает. Песни о Сталине 4 (01:10:25)

01. Женский хор ГАБТ / Идём, весёлые подруги [0:02:31.63]
02. Краснознамённый анс. Александрова / Марш комсомола [0:01:57.22]
03. В. Канделаки, хор театра Немировича-Данченко / Ой ли, вы, ребята [0:02:29.48]
04. В. Канделаки, хор театра Немировича-Данченко / Испания будет свободной [0:02:47.32]
05. Д. Бадридзе, ф-но / Четыре товарища [0:02:27.48]
06. ансамбль ЦДКА / Прощай, папанинская льдина [0:02:51.55]
07. А. Батурин, ф-но / Северный полюс [0:02:11.67]
08. Краснознамённый анс. Александрова / Кантата о Сталине [0:06:04.28]
09. Г. Сечевко и И. Кузнецов, балалаечный оркестр ЦДКА / Песня о Ворошилове [0:02:41.35]
10. Детский хор и оркестр ЦДКЖ / Наша детская железнодорожная [0:02:18.05]
11. Детский хор и оркестр ЦДКЖ / Страна выбирает [0:01:55.57]
12. Пионерский ансамбль Метростроя / Песня о первом депутате [0:02:31.68]
13. Хор п.у И. Юховой и духовой оркестр / Песня о метро [0:02:23.17]
14. П. Киричек и С.Хромченко, оркестр ГАБТ / Над рекой, рекою быстрою [0:02:16.05]
15. Л. Орлова, хор и оркестр ВРК / Марш энтузиастов [0:02:57.28]
16. И. Бодайков, ансамбль МВО / Фронтовая песня о Сталине [0:02:38.50]
17. Гос. Народный Хор им. Пятницкого / В.М. Молотову - Величальная песня [0:02:12.22]
18. Гос. Народный Хор им. Пятницкого / Величальная И.В. Сталину [0:03:08.13]
19. анс. МВО / В бой за Родину [0:02:21.40]
20. анс. МВО / Будет Гитлеру конец [0:03:08.35]
21. Гос. Народный Хор им. Пятницкого / Колхозная песня о Москве [0:03:03.72]
22. Воронежский русский народный хор / Заживём мы веселей [0:02:18.08]
23. А. Королёв, хор и оркестр п.у В. Кнушевицкого / Для нас открыты солнечные дали [0:04:18.25]
24. А. Королёв, ансамбль песни ВРК / Сталин родной [0:04:07.65]
25. Хор русской народной песни п.р А. Ианова-Крамского / Великий Сталин к миру всех зовёт [0:02:42.47]

Лог создания рипа

Exact Audio Copy V1.3 from 2. September 2016
EAC extraction logfile from 3. March 2019, 16:03
Various Artists / Страна выбирает. Песни о Сталине 4
Used drive : PLEXTOR DVDR PX-L890SA Adapter: 1 ID: 0
Read mode : SecureUtilize accurate stream : YesDefeat audio cache : YesMake use of C2 pointers : No
Read offset correction : 6Overread into Lead-In and Lead-Out : NoFill up missing offset samples with silence : YesDelete leading and trailing silent blocks : NoNull samples used in CRC calculations : YesUsed interface : Native Win32 interface for Win NT & 2000
Used output format : User Defined EncoderSelected bitrate : 1024 kBit/sQuality : HighAdd ID3 tag : NoCommand line compressor : C:\Program Files (x86)\Exact Audio Copy\wavpack.exeAdditional command line options : -lm %source%
TOC of the extracted CD
Track | Start | Length | Start sector | End sector --------------------------------------------------------- 1 | 0:00.00 | 2:31.63 | 0 | 11387 2 | 2:31.63 | 1:57.22 | 11388 | 20184 3 | 4:29.10 | 2:29.48 | 20185 | 31407 4 | 6:58.58 | 2:47.32 | 31408 | 43964 5 | 9:46.15 | 2:27.48 | 43965 | 55037 6 | 12:13.63 | 2:51.55 | 55038 | 67917 7 | 15:05.43 | 2:11.67 | 67918 | 77809 8 | 17:17.35 | 6:04.28 | 77810 | 105137 9 | 23:21.63 | 2:41.35 | 105138 | 117247 10 | 26:03.23 | 2:18.05 | 117248 | 127602 11 | 28:21.28 | 1:55.57 | 127603 | 136284 12 | 30:17.10 | 2:31.68 | 136285 | 147677 13 | 32:49.03 | 2:23.17 | 147678 | 158419 14 | 35:12.20 | 2:16.05 | 158420 | 168624 15 | 37:28.25 | 2:57.28 | 168625 | 181927 16 | 40:25.53 | 2:38.50 | 181928 | 193827 17 | 43:04.28 | 2:12.22 | 193828 | 203749 18 | 45:16.50 | 3:08.13 | 203750 | 217862 19 | 48:24.63 | 2:21.40 | 217863 | 228477 20 | 50:46.28 | 3:08.35 | 228478 | 242612 21 | 53:54.63 | 3:03.72 | 242613 | 256409 22 | 56:58.60 | 2:18.08 | 256410 | 266767 23 | 59:16.68 | 4:18.25 | 266768 | 286142 24 | 63:35.18 | 4:07.65 | 286143 | 304732 25 | 67:43.08 | 2:42.47 | 304733 | 316929
Range status and errors
Selected range
Filename D:\wwphil\Страна выбирает. Песни о Сталине 4\Страна выбирает. Песни о Сталине 4.wav
Peak level 94.4 % Extraction speed 10.1 X Range quality 100.0 % Test CRC 9CAC5739 Copy CRC 9CAC5739 Copy OK
No errors occurred
AccurateRip summary
Track 1 not present in databaseTrack 2 not present in databaseTrack 3 not present in databaseTrack 4 not present in databaseTrack 5 not present in databaseTrack 6 not present in databaseTrack 7 not present in databaseTrack 8 not present in databaseTrack 9 not present in databaseTrack 10 not present in databaseTrack 11 not present in databaseTrack 12 not present in databaseTrack 13 not present in databaseTrack 14 not present in databaseTrack 15 not present in databaseTrack 16 not present in databaseTrack 17 not present in databaseTrack 18 not present in databaseTrack 19 not present in databaseTrack 20 not present in databaseTrack 21 not present in databaseTrack 22 not present in databaseTrack 23 not present in databaseTrack 24 not present in databaseTrack 25 not present in database
None of the tracks are present in the AccurateRip database
End of status report
==== Log checksum 92DF7D99AD900894418B562563A0ED59E3A414BBD1E422C0E5BF5B3BEC98947D ====

Лог проверки качества

fooCDtect - foobar2000 + auCDtect, baralgin.
auCDtect: CD records authenticity detector, version 0.8.2Copyright (c) 2004 Oleg Berngardt. All rights reserved.Copyright (c) 2004 Alexander Djourik. All rights reserved.
mode: 0
=========================================== Track: Страна выбирает. Песни о Сталине 4 Quality: CDDA 100%===========================================

Скриншот спектра частот

Official DR Value: DR12, DR13, DR13, DR12


[torrentc.info]_t_5701747.torrent
Торрент: Зарегистрирован ·  [ 2019-03-11 13:13 ] ·  c74f29214b6a54b98d12dca426a1e97b0f6fa908

17 KB

Статус: проверено
Скачан: 1 раз
Размер: 1.06 GB
Оценка: 
(Голосов: 0)
Сказали спасибо: 0  Спасибо
Похожие темы
[Профиль]    [ЛС]
Показать сообщения:    
Ответить на тему

Текущее время: Сегодня 14:54

Часовой пояс: GMT + 7



Вы не можете начинать темы
Вы не можете отвечать на сообщения
Вы не можете редактировать свои сообщения
Вы не можете удалять свои сообщения
Вы не можете голосовать в опросах
Вы не можете прикреплять файлы к сообщениям
Вы можете скачивать файлы