(Dub, Roots Reggae) [CD] Singers & Players - Staggering Heights - 1999 (1983), FLAC (tracks+.cue), lossless

Ответить на тему
Статистика раздачи [Обновить пиров]
Размер:  251 MB   |    Зарегистрирован:  14 дней   |    Скачан:  0 раз

Полного источника не было: Никогда

 
   
 
 
 
Автор Сообщение

Генри

Создавать темы 11-Мар-2019 13:13

[Цитировать]

Singers & Players / Staggering Heights
Жанр: Dub, Roots Reggae
Носитель: CD
Страна-производитель диска (релиза): UK
Год издания: 1999 (1983)
Издатель (лейбл): On-U Sound
Номер по каталогу: ON-U CD 0023
Аудиокодек: FLAC (*.flac)
Тип рипа: tracks+.cue
Битрейт аудио: lossless
Продолжительность: 00:41:44
Источник: локальная сеть
Наличие сканов в содержимом раздачи: нет
Треклист:
1 African Blood 3:51
2 Bedward The Flying Preacher 4:44
3 Snipers In The Streets 6:10
4 A Matter Of Time 5:47
5 School Days 3:55
6 Autobiography 6:57
7 Socca 5:56
8 This Assembly 4:31

Лог создания рипа

EAC extraction logfile from 24. June 2006, 22:12 for CDSingers and Players Feat. Prince Far I / Staggering Heights
Used drive : SONY DVD RW DW-G120A Adapter: 3 ID: 0Read mode : Secure with NO C2, accurate stream, disable cacheRead offset correction : 12Overread into Lead-In and Lead-Out : No
Used output format : C:\Program Files\FLAC\flac.exe (User Defined Encoder) 128 kBit/s Additional command line options : -V -8 -T "artist=%a" -T "title=%t" -T "album=%g" -T "date=%y" -T "tracknumber=%n" -T "genre=%m" %s
Other options : Fill up missing offset samples with silence : Yes Delete leading and trailing silent blocks : No Native Win32 interface for Win NT & 2000
Track 1 Filename C:\Documents and Settings\Desktop\albums to seed\New Folder\01 - African Blood.wav
Pre-gap length 0:00:02.00
Peak level 100.0 % Track quality 100.0 % Test CRC F9139023 Copy CRC F9139023 Copy OK
Track 2 Filename C:\Documents and Settings\Desktop\albums to seed\New Folder\02 - Bedward The Flying Preacher.wav
Pre-gap length 0:00:01.52
Peak level 99.3 % Track quality 100.0 % Test CRC E0E74266 Copy CRC E0E74266 Copy OK
Track 3 Filename C:\Documents and Settings\Desktop\albums to seed\New Folder\03 - Snipers In The Street.wav
Peak level 100.0 % Track quality 100.0 % Test CRC B3A5208B Copy CRC B3A5208B Copy OK
Track 4 Filename C:\Documents and Settings\Desktop\albums to seed\New Folder\04 - A Matter Of Time.wav
Peak level 100.0 % Track quality 100.0 % Test CRC EA1FDBED Copy CRC EA1FDBED Copy OK
Track 5 Filename C:\Documents and Settings\Desktop\albums to seed\New Folder\05 - School Days.wav
Pre-gap length 0:00:01.04
Peak level 100.0 % Track quality 100.0 % Test CRC C7EE3580 Copy CRC C7EE3580 Copy OK
Track 6 Filename C:\Documents and Settings\Desktop\albums to seed\New Folder\06 - Socca.wav
Peak level 100.0 % Track quality 100.0 % Test CRC 9964FA7C Copy CRC 9964FA7C Copy OK
Track 7 Filename C:\Documents and Settings\Desktop\albums to seed\New Folder\07 - Autobiography.wav
Peak level 98.8 % Track quality 100.0 % Test CRC F66629A2 Copy CRC F66629A2 Copy OK
Track 8 Filename C:\Documents and Settings\Desktop\albums to seed\New Folder\08 - This Assembly.wav
Peak level 94.9 % Track quality 100.0 % Test CRC 87F9FC7F Copy CRC 87F9FC7F Copy OK
No errors occured
End of status report

Содержание индексной карты (.CUE)

REM GENRE ReggaeREM DISCID 780B8009REM COMMENT "ExactAudioCopy v0.95b4"PERFORMER "Singers & Players & Prince Far I"TITLE "Staggering Heights"FILE "Singers & Players & Prince Far I - Staggering Heights - 01 - African Blood.wav" WAVE TRACK 01 AUDIO TITLE "African Blood" PERFORMER "Singers and Players Feat. Prince Far I" INDEX 01 00:00:00 TRACK 02 AUDIO TITLE "Bedward The Flying Preacher" PERFORMER "Singers and Players Feat. Prince Far I" INDEX 00 03:49:26FILE "Singers & Players & Prince Far I - Staggering Heights - 02 - Bedward The Flying Preacher.wav" WAVE INDEX 01 00:00:00FILE "Singers & Players & Prince Far I - Staggering Heights - 03 - Snipers In The Street.wav" WAVE TRACK 03 AUDIO TITLE "Snipers In The Street" PERFORMER "Singers and Players Feat. Prince Far I" INDEX 01 00:00:00FILE "Singers & Players & Prince Far I - Staggering Heights - 04 - A Matter Of Time.wav" WAVE TRACK 04 AUDIO TITLE "A Matter Of Time" PERFORMER "Singers and Players Feat. Prince Far I" INDEX 01 00:00:00 TRACK 05 AUDIO TITLE "School Days" PERFORMER "Singers and Players Feat. Prince Far I" INDEX 00 05:45:52FILE "Singers & Players & Prince Far I - Staggering Heights - 05 - School Days.wav" WAVE INDEX 01 00:00:00FILE "Singers & Players & Prince Far I - Staggering Heights - 06 - Socca.wav" WAVE TRACK 06 AUDIO TITLE "Socca" PERFORMER "Singers and Players Feat. Prince Far I" INDEX 01 00:00:00FILE "Singers & Players & Prince Far I - Staggering Heights - 07 - Autobiography.wav" WAVE TRACK 07 AUDIO TITLE "Autobiography" PERFORMER "Singers and Players Feat. Prince Far I" INDEX 01 00:00:00FILE "Singers & Players & Prince Far I - Staggering Heights - 08 - This Assembly.wav" WAVE TRACK 08 AUDIO TITLE "This Assembly" PERFORMER "Singers and Players Feat. Prince Far I" INDEX 01 00:00:00 TRACK 09 MODEx/2xxx TITLE "Data Track" PERFORMER "Singers and Players Feat. Prince Far I" INDEX 00 04:30:52


[torrentc.info]_t_5701746.torrent
Торрент: Зарегистрирован ·  [ 2019-03-11 13:13 ] ·  6b6599e99842f6282fdcbb3899dcb2481294f30a

21 KB

Статус: проверено
Скачан: 0 раз
Размер: 251 MB
Оценка: 
(Голосов: 0)
Сказали спасибо: 0  Спасибо
Похожие темы
[Профиль]    [ЛС]
Показать сообщения:    
Ответить на тему

Текущее время: Сегодня 15:24

Часовой пояс: GMT + 7



Вы не можете начинать темы
Вы не можете отвечать на сообщения
Вы не можете редактировать свои сообщения
Вы не можете удалять свои сообщения
Вы не можете голосовать в опросах
Вы не можете прикреплять файлы к сообщениям
Вы можете скачивать файлы