Киркоров и Ко - Цвет настроения синий [2018, POP, HDTV, 1080i]

Ответить на тему
Статистика раздачи [Обновить пиров]
Размер:  421 MB   |    Зарегистрирован:  14 дней   |    Скачан:  0 раз

Полного источника не было: Никогда

 
   
 
 
 
Автор Сообщение

Mr_Fox

Создавать темы 10-Мар-2019 19:42

[Цитировать]

Киркоров и Ко - Цвет настроения синий
Жанр: POP
Продолжительность: 3:44
Год выхода: 2018
Описание: Бурановские бабушки, хор военных спасателей, Непоседы, цыганский ансамбль, грузинский коллектив, шоу-варьете и ФИЛИПП КИРКОРОВ - Цвет настроения синий
Качество: HDTV
Разрешение видео/развертка: 1080i
Формат файла: TS
Видео кодек: H.264
Аудио кодек: AC3
Видео: H264; 1920 x 1080 (1.778) at 25.000 fps, 14,7 Мбит/сек
Аудио: MPEG Audio at 192 Кбит/сек Infos, 2 канала, 48,0 КГц

Отчёт MediaInfo / BDInfo

ОбщееИдентификатор : 1 (0x1)Полное имя : C:\HP\Киркоров и Ко - Цвет настроения синий.tsФормат файла : MPEG-TSРазмер файла : 421 МбайтПродолжительность : 3 м. 44 с.Режим общего битрейта : ПеременныйОбщий поток : 15,7 Мбит/сек
ВидеоИдентификатор : 1911 (0x777)Идентификатор меню : 19001 (0x4A39)Формат файла : AVCФормат файла/Информация : Advanced Video CodecПрофиль формата : Main@L4Настройки формата : CABAC / 3 Ref FramesПараметр CABAC формата : ДаПараметр RefFrames формата : 3 кадраИдентификатор кодека : 27Продолжительность : 3 м. 44 с.Битрейт : 14,7 Мбит/секШирина : 1920 пикселейВысота : 1080 пикселейСоотношение сторон : 16:9Частота кадров : 25,000 кадров/секЦветовое пространство : YUVСубдискретизация насыщенности : 4:2:0Битовая глубина : 8 битТип развёртки : ЧересстрочнаяМетод сохранения типа развёртки : Раздельные поляПорядок развёртки : Верхнее поле первоеБит/(Пиксели*Кадры) : 0.285Размер потока : 395 Мбайт (94%)Цветовой диапазон : LimitedОсновные цвета : BT.709Характеристики трансфера : BT.709Коэффициенты матрицы : BT.709
АудиоИдентификатор : 1912 (0x778)Идентификатор меню : 19001 (0x4A39)Формат файла : MPEG AudioВерсия формата : Version 1Профиль формата : Layer 2Идентификатор кодека : 3Продолжительность : 3 м. 44 с.Вид битрейта : ПостоянныйБитрейт : 192 Кбит/секКаналы : 2 каналаЧастота : 48,0 КГцЧастота кадров : 41,667 кадра/сек (1152 SPF)Метод сжатия : С потерямиЗадержка видео : -40 мс.Размер потока : 5,15 Мбайт (1%)Язык : Russian

Скриншоты





[torrentc.info]_t_5667242.torrent
Торрент: Зарегистрирован ·  [ 2019-03-10 19:38 ] ·  5dc588707cfe54e3f1b15893bb33a874ea8b403a

17 KB

Статус: проверено
Скачан: 0 раз
Размер: 421 MB
Оценка: 
(Голосов: 0)
Сказали спасибо: 0  Спасибо
Похожие темы
[Профиль]    [ЛС]
Показать сообщения:    
Ответить на тему

Текущее время: Сегодня 14:53

Часовой пояс: GMT + 7



Вы не можете начинать темы
Вы не можете отвечать на сообщения
Вы не можете редактировать свои сообщения
Вы не можете удалять свои сообщения
Вы не можете голосовать в опросах
Вы не можете прикреплять файлы к сообщениям
Вы можете скачивать файлы