Жили-были три сестры... / Es waren einmal drei Schwestern... (Катя Георги / Katja Georgi) [1982, ГДР, сказка, WEBRip] MVO

Ответить на тему
Статистика раздачи [Обновить пиров]
Размер:  153 MB   |    Зарегистрирован:  15 дней   |    Скачан:  0 раз

Полного источника не было: Никогда

 
   
 
 
 
Автор Сообщение

КЭП

Создавать темы 09-Мар-2019 17:31

[Цитировать]

Жили-были три сестры... / Es waren einmal drei Schwestern...
Страна: ГДР
Жанр: сказка
Продолжительность: 0:16:59
Год выхода: 1982
Перевод: Любительский (многоголосый закадровый) progulkin & Co., даша_ст & Co.
Русские субтитры: нет
Режиссёр: Катя Георги / Katja Georgi
Описание: Жили-были три сестры - Темновласка, Рыжевласка и Златовласка. Обе старшие сестры в ответ на просьбу превращенного в родник юноши Серебрянца дали фальшивые обещания в том, что станут его невестами, а затем, напившись воды, ушли с насмешками прочь. И только младшая, Златовласка, честная и добрая девушка, поклялась ему в вечной любви. Теперь лишь ей под силу спасти находящегося в плену у злой колдуньи Серебрянца, а помогут ей в этом дары Солнца, Месяца и Ветра...
По мотивам народных сказок.
Качество: WEBRip
Формат файла: AVI
Видео: Xvid, 608x464, 25 fps, 1054 kbps
Аудио: MP3, 44100 Hz stereo, 192 kbps
Субтитры: отсутствуют

Подробные технические данные

GeneralComplete name : 3_sestri.aviFormat : AVIFormat/Info : Audio Video InterleaveFile size : 153 MiBDuration : 16 min 58 sOverall bit rate : 1 256 kb/sWriting application : VirtualDubMod 1.5.10.3 | www.virtualdub-fr.org || (build 2550/release)Writing library : VirtualDubMod build 2550/release
VideoID : 0Format : MPEG-4 VisualFormat profile : Advanced Simple@L4Format settings, BVOP : 2Format settings, QPel : NoFormat settings, GMC : No warppointsFormat settings, Matrix : Default (H.263)Codec ID : XVIDCodec ID/Hint : XviDDuration : 16 min 58 sBit rate : 1 054 kb/sWidth : 608 pixelsHeight : 464 pixelsDisplay aspect ratio : 4:3Frame rate : 25.000 FPSColor space : YUVChroma subsampling : 4:2:0Bit depth : 8 bitsScan type : ProgressiveCompression mode : LossyBits/(Pixel*Frame) : 0.150Stream size : 128 MiB (84%)Writing library : XviD 73
AudioID : 1Format : MPEG AudioFormat version : Version 1Format profile : Layer 3Mode : Joint stereoMode extension : MS StereoCodec ID : 55Codec ID/Hint : MP3Duration : 16 min 58 sBit rate mode : ConstantBit rate : 192 kb/sChannel(s) : 2 channelsSampling rate : 44.1 kHzCompression mode : LossyStream size : 23.3 MiB (15%)Alignment : Aligned on interleavesInterleave, duration : 40 ms (1.00 video frame)Interleave, preload duration : 522 ms

Скриншоты

Большое спасибо Веронике и Феликсу Станиловским за помощь в озвучивании!


[torrentc.info]_t_5700418.torrent
Торрент: Зарегистрирован ·  [ 2019-03-09 17:31 ] ·  55b0168ad9f8c1c4ee780407507b046c4e1f0a9b

12 KB

Статус: проверено
Скачан: 0 раз
Размер: 153 MB
Оценка: 
(Голосов: 0)
Сказали спасибо: 0  Спасибо
Похожие темы
[Профиль]    [ЛС]
Показать сообщения:    
Ответить на тему

Текущее время: Сегодня 14:58

Часовой пояс: GMT + 7



Вы не можете начинать темы
Вы не можете отвечать на сообщения
Вы не можете редактировать свои сообщения
Вы не можете удалять свои сообщения
Вы не можете голосовать в опросах
Вы не можете прикреплять файлы к сообщениям
Вы можете скачивать файлы