Деррик / Derrick / Сезон: 10 / Серии: 6 из 10 (Юрген Гослар / Jürgen Goslar) [1983, ФРГ, детектив, DVDRip-AVC] Original (Deu) + Rus Sub (rjym3)

Reply to topic
DL-List and Torrent activity [Update пиров]
Size:  332 MB   |    Registered:  7 months 8 days   |    Completed:  0 times

Seeder not seen: Never

 
   
 
 
 
Author Message

Пушистый

Post 06-Mar-2019 09:15

[Quote]

Деррик / Derrick
Год выхода: 1983
Страна: ФРГ
Жанр: детектив
Продолжительность: 00:57:31
Перевод: Субтитры rjym3
Режиссёр: Юрген Гослар / Jürgen Goslar
В ролях:
Хорст Тапперт: старший инспектор Деррик
Фриц Веппер: инспектор Кляйн
Вилли Шефер: инспектор Бергер
Петер Эрлих: Вальтер Хагеман
Эва Котхаус: Роза Хагеман
Верена Петер: Анита Хагеман
Томас Шюке: Петер Хагеман
Эрик Шуман: Кесслер-старший
Кристиан Беркель: Кесслер-младший
Описание: В общем списке серия 104 Tödliches Rendezvous.
Деррик собирается ехать в Лондон. Заходит в банк поменять валюту. И вдруг, откуда ни возьмись, появляется грабитель...
Доп. информация:
Русские субтитры в полном объеме - rjym3
Переведены с норвежских субтитров, предоставленных ув. Варфаломей09
Пятый эпизод, показанный по телевидению СССР
28.07.1989 Вторая программа ЦТ. 23:15
Владеющие укр. языком или свободно понимающие его, могут посмотреть сюда:

УКР

укр.звук: http://cloud.mail.ru/public/6geZ/g6YuVWpVW
В самом конце не хватает двух фраз.
Субтитры на них: http://cloud.mail.ru/public/J1RZ/DVtoHQJG3

Предупреждение

Не ожидал такого "шедевра". Редкостная дрянь.
От самого начала и до конца: шизоидная белиберда с претензией на "глубокий психоанализ".
Моя личная оценка - 0 из 10
Сэмпл: http://multi-up.com/1223173
Качество: DVDRip-AVC
Формат файла: MP4
Видео: AVC, 576х432, 4:3, 674 Kbps, 25.000 fps
Аудио: AAC, 128 Kbps, 44.1 KHz, 2 channels, Front: L R
Субтитры: русские .srt
Реклама:
отсутствует

Список серий

Деррик. Сезон 10 серия 6. В общем списке серия 104. Роковое свидание (Tödliches Rendezvous)

MediaInfo

General
Complete name : F:\Derrick 104\Derrick - 104. Todliches Rendezvous.mp4
Format : MPEG-4
Format profile : Base Media
Codec ID : isom
File size : 332 MiB
Duration : 57mn 31s
Overall bit rate : 808 Kbps
Writing application : Lavf57.83.100
Video
ID : 1
Format : AVC
Format/Info : Advanced Video Codec
Format profile : High@L3.1
Format settings, CABAC : Yes
Format settings, ReFrames : 2 frames
Codec ID : avc1
Codec ID/Info : Advanced Video Coding
Duration : 57mn 31s
Duration_LastFrame : -5ms
Bit rate mode : Variable
Bit rate : 674 Kbps
Width : 576 pixels
Height : 432 pixels
Display aspect ratio : 4:3
Frame rate mode : Constant
Frame rate : 25.000 fps
Color space : YUV
Chroma subsampling : 4:2:0
Bit depth : 8 bits
Scan type : Progressive
Bits/(Pixel*Frame) : 0.108
Stream size : 277 MiB (83%)
Audio
ID : 2
Format : AAC
Format/Info : Advanced Audio Codec
Format profile : LC
Codec ID : 40
Duration : 57mn 31s
Bit rate mode : Constant
Bit rate : 128 Kbps
Channel(s) : 2 channels
Channel positions : Front: L R
Sampling rate : 44.1 KHz
Compression mode : Lossy
Stream size : 52.7 MiB (16%)

Скриншоты

[url=tracker.php?g=foreign_serials&nm=Derrick]Предыдущие и альтернативные раздачи[/url]


[geo-torrent.biz]_t_5687479.torrent
Torrent: Registered ·  [ 2019-03-06 09:13 ] ·  49a835aee4d5c008237e5a200c2def7c655e88b4

14 KB

Status: checked
Completed: 0 times
Size: 332 MB
Rating: 
(Votes: 0)
Say thanks: 0  Thanks
Похожие темы
[Profile]    [PM]
Display posts from previous:    
Reply to topic

The time now is: Today 09:09

All times are GMT + 7 Hours



You cannot post new topics in this forum
You cannot reply to topics in this forum
You cannot edit your posts in this forum
You cannot delete your posts in this forum
You cannot vote in polls in this forum
You cannot attach files in this forum
You can download files in this forum