[MasterClass.com] Говард Шульц учит бизнес-лидерству / Howard Schultz Teaches Business Leadership / Урок 1-13 [2019, бизнес, лидерство, WEBRip, ENG] (Видеоурок)

Ответить на тему
Статистика раздачи [Обновить пиров]
Размер:  1.66 GB   |    Зарегистрирован:  19 дней   |    Скачан:  0 раз

Полного источника не было: Никогда

 
   
 
 
 
Автор Сообщение

Mak

Создавать темы 06-Мар-2019 09:14

[Цитировать]

Говард Шульц учит бизнес-лидерству / Howard Schultz Teaches Business Leadership
Автор: MasterClass.com
Страна: США
Тематика: Бизнес, Лидерство
Тип раздаваемого материала: Видеоурок
Продолжительность: 01:43:54
Год выхода: 2019
Язык: Английский
Перевод: Отсутствует
Ссылка на видеокурс на сайте производителя: http://www.masterclass.com/classes/howard-schultz-leading-a-values-based-business
Описание: Бывший генеральный директор Starbucks Говард Шульц, выросший в рабочих кварталах Бруклина, стал руководителем компании, которая произвела революцию в мире кофе. Не имея формального бизнес-образования, он полагался на свои ценности, превращая сеть из 13 магазинов в глобальный бренд с более чем 250 000 сотрудников. В своем 90-минутном видеоролике Говард делится тем, что он узнал о лидерстве, основанном на ценностях, и о том, как стать предпринимателем.

Содержание курса

01.Jump In
Howard Schultz didn’t have an MBA or an Ivy League degree, but he had a dream of building an enduring company. He tells you how to face self-doubt when starting your journey as an entrepreneur.
02.Values and Profits Are Not Enemies
Howard shares the origin story of Starbucks, and how he built a company where values and profit are not in conflict.
03.Be Curious
Learn why intellectual curiosity, learning on the job, and finding a mentor are important for every entrepreneur.
04.Don't Pioneer. Disrupt.
Howard shares his thoughts on a question he gets from entrepreneurs: Should I disrupt an existing category or start a new one?
05.Focus and Get in the Mud
Learn why leaders of every organization must establish priorities and understand the intricacies of their business.
06.Find the Right Investors
Howard shares his advice on how to find the right investors for your business and what to communicate to a potential investor.
07.Coffee Break
Take a coffee break with Howard as he teaches you how he makes his favorite French press coffee.
08.Overinvest in Culture
Howard defines what culture means to him and ways to maintain a healthy balance.
09.Hire a Values-Based Team
Your primary job as CEO will be to hire a team that shares your values. Howard shares his approach to accomplishing this.
10.Don't Manage. Lead.
People don’t want to be managed. Howard gives advice on how to effectively lead your team.
11.Cannibalize Yourself
Howard shares ways to stay ahead of the competition by cannibalizing your core business.
12.Real Leadership: What Do You Do in Crisis?
Hear how Howard led Starbucks through a crisis in 2008, and why it’s important to earn success everyday.
13.Onward
Howard gives you parting advice on knowing when is the right time to make the leap and start your business.
Ссылки на другие раздачи с MasterClass.com:
[url=tracker.php?f=1552,1568,1259,615&nm=MasterClass]http://Torrentc/forum/tracker.php?f=1552,1568,1259,615&nm=MasterClass[/url]

-
Качество: WEBRip
Формат файла: MP4
Видео кодек: H.264
Аудио кодек: AAC
Видео: AVC, 1920x1080, 16:9, 2297 kb/s, 24fps
Аудио: AAC, 162 kb/s, 48kHz, 2 channels

MediaInfo

General
Complete name : MasterClass - Howard Schultz Teaches Business Leadership\04.Don't Pioneer.Disrupt.mp4
Format : MPEG-4
Format profile : Base Media / Version 2
Codec ID : mp42 (isom/iso2/avc1/mp41)
File size : 140 MiB
Duration : 7 min 57 s
Overall bit rate : 2 466 kb/s
Encoded date : UTC 2019-02-21 21:46:06
Tagged date : UTC 2019-02-21 21:46:06
Writing application : HandBrake 1.2.1 2019021700
Video
ID : 1
Format : AVC
Format/Info : Advanced Video Codec
Format profile : Main@L4
Format settings, CABAC : Yes
Format settings, ReFrames : 4 frames
Codec ID : avc1
Codec ID/Info : Advanced Video Coding
Duration : 7 min 57 s
Bit rate : 2 298 kb/s
Width : 1 920 pixels
Height : 1 080 pixels
Display aspect ratio : 16:9
Frame rate mode : Variable
Frame rate : 24.000 FPS
Minimum frame rate : 12.000 FPS
Maximum frame rate : 24.000 FPS
Color space : YUV
Chroma subsampling : 4:2:0
Bit depth : 8 bits
Scan type : Progressive
Bits/(Pixel*Frame) : 0.046
Stream size : 131 MiB (93%)
Writing library : x264 core 157 r2935 545de2f
Encoding settings : cabac=1 / ref=2 / deblock=1:0:0 / analyse=0x1:0x111 / me=hex / subme=6 / psy=1 / psy_rd=1.00:0.00 / mixed_ref=1 / me_range=16 / chroma_me=1 / trellis=1 / 8x8dct=0 / cqm=0 / deadzone=21,11 / fast_pskip=1 / chroma_qp_offset=-2 / threads=6 / lookahead_threads=1 / sliced_threads=0 / nr=0 / decimate=1 / interlaced=0 / bluray_compat=0 / constrained_intra=0 / bframes=3 / b_pyramid=2 / b_adapt=1 / b_bias=0 / direct=1 / weightb=1 / open_gop=0 / weightp=1 / keyint=240 / keyint_min=24 / scenecut=40 / intra_refresh=0 / rc_lookahead=30 / rc=crf / mbtree=1 / crf=22.0 / qcomp=0.60 / qpmin=0 / qpmax=69 / qpstep=4 / vbv_maxrate=20000 / vbv_bufsize=25000 / crf_max=0.0 / nal_hrd=none / filler=0 / ip_ratio=1.40 / aq=1:1.00
Encoded date : UTC 2019-02-21 21:46:06
Tagged date : UTC 2019-02-21 21:46:06
Color range : Limited
Color primaries : BT.709
Transfer characteristics : BT.709
Matrix coefficients : BT.709
Audio
ID : 2
Format : AAC
Format/Info : Advanced Audio Codec
Format profile : LC
Codec ID : 40
Duration : 7 min 57 s
Bit rate mode : Constant
Bit rate : 163 kb/s
Channel(s) : 2 channels
Channel positions : Front: L R
Sampling rate : 48.0 kHz
Frame rate : 46.875 FPS (1024 spf)
Compression mode : Lossy
Stream size : 9.27 MiB (7%)
Title : Stereo
Default : Yes
Alternate group : 1
Encoded date : UTC 2019-02-21 21:46:06
Tagged date : UTC 2019-02-21 21:46:06

Скриншоты



[torrentc.info]_t_5693933.torrent
Торрент: Зарегистрирован ·  [ 2019-03-06 09:13 ] ·  e61ec8351dd3e4b5452bdb17c9e546382dc16926

68 KB

Статус: проверено
Скачан: 0 раз
Размер: 1.66 GB
Оценка: 
(Голосов: 0)
Сказали спасибо: 0  Спасибо
Похожие темы
[Профиль]    [ЛС]
Показать сообщения:    
Ответить на тему

Текущее время: Сегодня 15:19

Часовой пояс: GMT + 7



Вы не можете начинать темы
Вы не можете отвечать на сообщения
Вы не можете редактировать свои сообщения
Вы не можете удалять свои сообщения
Вы не можете голосовать в опросах
Вы не можете прикреплять файлы к сообщениям
Вы можете скачивать файлы