Властелин колец: Братство кольца / The Lord of the Rings: The Fellowship of the Ring [2001, боевик, фэнтези, приключения, BDRip 1080p] [Extended Edition] [Color Restoration]

Ответить на тему
Статистика раздачи [Обновить пиров]
Размер:  24.18 GB   |    Зарегистрирован:  22 дня   |    Скачан:  0 раз

Полного источника не было: Никогда

 
   
 
 
 
Автор Сообщение

Пушистый

Создавать темы 02-Мар-2019 17:25

[Цитировать]

Властелин колец: Братство кольца / The Lord of the Rings: The Fellowship of the Ring [Extended Edition] [Color Restoration]
--Страна: США, Новая Зеландия
Жанр: Фэнтези, боевик, приключения
Год выхода: 2001
Продолжительность: 03:48:11--Перевод 1: Дублированный + вставки Позитив-Мультимедиа на расширенные места
Перевод 2: Профессиональный многоголосый закадровый (Позитив-Мультимедиа)
Перевод 3: Профессиональный многоголосый закадровый (Киномания/Супербит- SRI)
Русские субтитры: Форсированные, полные--Режиссер: Питер Джексон
В ролях: Элайджа Вуд, Иэн МакКеллен, Вигго Мортенсен, Шон Бин, Орландо Блум, Джон Рис-Дэвис, Иэн Холм, Шон Эстин, Билли Бойд, Доминик Монахэн, Хьюго Уивинг, Кейт Бланшетт, Лив Тайлер, Кристофер Ли--Описание: Сказания о Средиземье — это хроника Великой войны за Кольцо, войны, длившейся не одну тысячу лет. Тот, кто владел Кольцом, получал власть над всеми живыми тварями, но был обязан служить злу.
Тихая деревня, где живут хоббиты. Волшебник Гэндальф, придя на 111-й день рождения к
своему старому другу Бильбо Бэггинсу, начинает вести разговор о кольце, которое Бильбо
нашел много лет назад. Это кольцо принадлежало когда-то темному властителю Средиземья Саурону, и оно дает большую власть своему обладателю. Теперь Саурон хочет вернуть себе власть над Средиземьем. Бильбо отдает найденное кольцо своему племяннику Фродо, который пытается научиться справляться с тем страшным могуществом, которое дает ему кольцо…--Тип релиза: BDRip 1080p (источники: Blu-ray Theatrical Edition, Blu-ray Extended Edition)

Формат файла: MKV
Видео: MPEG4 AVC Video / 12800 kbps / 1920x798 / 23.976 fps / 2,40:1 / High@L4.1 / 4:2:0 / 8 bits
Аудио 1: Russian AC3 / 5.1 / 48 kHz / 448 kbps / | Дубляж + вставки многоголосый Позитив-Мультимедиа |
Аудио 2: Russian AC3 / 5.1 / 48 kHz / 640 kbps / | Многоголосый, Позитив-Мультимедиа |
Аудио 3: Russian AC3 / 5.1 / 48 kHz / 640 kbps / | Многоголосый, Киномания/Супербит-СРИ |
Аудио 4: English AC3 / 5.1 / 48 kHz / 640 kbps / |original|

Скриншоты (слева BD Extended Edition, справа Color Restoration)



















MediaInfo

Формат файла                                   : Matroska
Версия формата                           : Version 4 / Version 2
Размер файла                             : 24,2 Гбайт
Продолжительность                        : 3 ч. 48 м.
Общий поток                              : 15,2 Мбит/сек
Название фильма                          : The Lord of the Rings: The Fellowship of the Ring
Дата кодирования                         : UTC 2010-02-22 21:41:31
Программа кодирования                    : mkvmerge v5.8.0 ('No Sleep / Pillow') built on Nov 13 2012 19:43:22
Библиотека кодирования                   : libebml v1.3.0 + libmatroska v1.4.0
Attachments                              : anicm___.ttf / anicb___.ttf / Ringbearer.ttf
Видео
Идентификатор                            : 1
Формат файла                                   : AVC
Формат файла/Информация                        : Advanced Video Codec
Профиль формата                          : High@L4.1
Параметр CABAC формата                   : Да
Параметр ReFrames формата                : 4 кадра
Режим смешивания                         : Header stripping
Идентификатор кодека                     : V_MPEG4/ISO/AVC
Продолжительность                        : 3 ч. 48 м.
Битрейт                                  : 12,8 Мбит/сек
Ширина                                   : 1920 пикселей
Высота                                   : 798 пикселей
Соотношение сторон                       : 2,40:1
Режим частоты кадров                     : Постоянный
Частота кадров                           : 23,976 (23976/1000) кадра/сек
Частота кадров в оригинале               : 23,976 (24000/1001) кадра/сек
Цветовое пространство                    : YUV
Субдискретизация насыщенности            : 4:2:0
Битовая глубина                          : 8 бит
Тип развёртки                            : Прогрессивная
Бит/(Пиксели*Кадры)                      : 0.348
Размер потока                            : 19,9 Гбайт (82%)
Библиотека кодирования                   : x264 core 142 r2479 dd79a61
Настройки программы                      : cabac=1 / ref=3 / deblock=1:-1:-1 / analyse=0x3:0x113 / me=hex / subme=7 / psy=1 / psy_rd=1.00:0.15 / mixed_ref=1 / me_range=16 / chroma_me=1 / trellis=1 / 8x8dct=1 / cqm=0 / deadzone=21,11 / fast_pskip=1 / chroma_qp_offset=-3 / threads=18 / lookahead_threads=3 / sliced_threads=0 / nr=0 / decimate=1 / interlaced=0 / bluray_compat=0 / constrained_intra=0 / bframes=3 / b_pyramid=2 / b_adapt=1 / b_bias=0 / direct=1 / weightb=1 / open_gop=0 / weightp=2 / keyint=240 / keyint_min=24 / scenecut=40 / intra_refresh=0 / rc_lookahead=40 / rc=2pass / mbtree=1 / bitrate=12800 / ratetol=1.0 / qcomp=0.60 / qpmin=0 / qpmax=69 / qpstep=4 / cplxblur=20.0 / qblur=0.5 / vbv_maxrate=62500 / vbv_bufsize=78125 / nal_hrd=none / filler=0 / ip_ratio=1.40 / aq=1:1.00
Язык                                     : English
Default                                  : Да
Forced                                   : Нет
Цветовой диапазон                        : Limited
Основные цвета                           : BT.709
Характеристики трансфера                 : BT.709
Коэффициенты матрицы                     : BT.601
Аудио #1
Идентификатор                            : 2
Формат файла                                   : AC-3
Формат файла/Информация                        : Audio Coding 3
Расширение режима                        : CM (complete main)
Параметр Endianness формата              : Big
Режим смешивания                         : Header stripping
Идентификатор кодека                     : A_AC3
Продолжительность                        : 3 ч. 48 м.
Вид битрейта                             : Постоянный
Битрейт                                  : 448 Кбит/сек
Каналы                                   : 6 каналов
Расположение каналов                     : Front: L C R, Side: L R, LFE
Частота                                  : 48,0 КГц
Частота кадров                           : 31,250 кадров/сек (1536 spf)
Метод сжатия                             : С потерями
Размер потока                            : 731 Мбайт (3%)
Заголовок                                : Дубляж + вставки многоголосый Позитив-Мультимедиа
Язык                                     : Russian
Default                                  : Да
Forced                                   : Нет
Аудио #2
Идентификатор                            : 3
Формат файла                                   : AC-3
Формат файла/Информация                        : Audio Coding 3
Расширение режима                        : CM (complete main)
Параметр Endianness формата              : Big
Режим смешивания                         : Header stripping
Идентификатор кодека                     : A_AC3
Продолжительность                        : 3 ч. 48 м.
Вид битрейта                             : Постоянный
Битрейт                                  : 640 Кбит/сек
Каналы                                   : 6 каналов
Расположение каналов                     : Front: L C R, Side: L R, LFE
Частота                                  : 48,0 КГц
Частота кадров                           : 31,250 кадров/сек (1536 spf)
Метод сжатия                             : С потерями
Размер потока                            : 1,02 Гбайт (4%)
Заголовок                                : Многоголосый, Позитив-Мультимедиа
Язык                                     : Russian
Default                                  : Нет
Forced                                   : Нет
Аудио #3
Идентификатор                            : 4
Формат файла                                   : AC-3
Формат файла/Информация                        : Audio Coding 3
Расширение режима                        : CM (complete main)
Параметр Endianness формата              : Big
Режим смешивания                         : Header stripping
Идентификатор кодека                     : A_AC3
Продолжительность                        : 3 ч. 48 м.
Вид битрейта                             : Постоянный
Битрейт                                  : 640 Кбит/сек
Каналы                                   : 6 каналов
Расположение каналов                     : Front: L C R, Side: L R, LFE
Частота                                  : 48,0 КГц
Частота кадров                           : 31,250 кадров/сек (1536 spf)
Метод сжатия                             : С потерями
Размер потока                            : 1,02 Гбайт (4%)
Заголовок                                : Многоголосый, Киномания/Супербит-СРИ
Язык                                     : Russian
Default                                  : Нет
Forced                                   : Нет
Аудио #4
Идентификатор                            : 5
Формат файла                                   : AC-3
Формат файла/Информация                        : Audio Coding 3
Расширение режима                        : CM (complete main)
Параметр Endianness формата              : Big
Режим смешивания                         : Header stripping
Идентификатор кодека                     : A_AC3
Продолжительность                        : 3 ч. 48 м.
Вид битрейта                             : Постоянный
Битрейт                                  : 640 Кбит/сек
Каналы                                   : 6 каналов
Расположение каналов                     : Front: L C R, Side: L R, LFE
Частота                                  : 48,0 КГц
Частота кадров                           : 31,250 кадров/сек (1536 spf)
Метод сжатия                             : С потерями
Размер потока                            : 1,02 Гбайт (4%)
Заголовок                                : Оригинал, Английский
Язык                                     : English
Default                                  : Нет
Forced                                   : Нет
Текст #1
Идентификатор                            : 6
Формат файла                                   : ASS
Идентификатор кодека                     : S_TEXT/ASS
Идентификатор кодека/Информация          : Advanced Sub Station Alpha
Метод сжатия                             : Без потерь
Заголовок                                : Русские форсированные стилизованные, Позитив-Мультимедиа (эльфийская речь и пр.)
Язык                                     : Russian
Default                                  : Да
Forced                                   : Нет
Текст #2
Идентификатор                            : 7
Формат файла                                   : UTF-8
Идентификатор кодека                     : S_TEXT/UTF8
Идентификатор кодека/Информация          : UTF-8 Plain Text
Заголовок                                : Русские форсированные, Позитив-Мультимедиа (эльфийская речь и пр.)
Язык                                     : Russian
Default                                  : Нет
Forced                                   : Нет
Текст #3
Идентификатор                            : 8
Формат файла                                   : UTF-8
Идентификатор кодека                     : S_TEXT/UTF8
Идентификатор кодека/Информация          : UTF-8 Plain Text
Заголовок                                : Русские полные, Позитив-Мультимедиа
Язык                                     : Russian
Default                                  : Нет
Forced                                   : Нет
Текст #4
Идентификатор                            : 9
Формат файла                                   : UTF-8
Идентификатор кодека                     : S_TEXT/UTF8
Идентификатор кодека/Информация          : UTF-8 Plain Text
Заголовок                                : Русские полные (Henneth-annun)
Язык                                     : Russian
Default                                  : Нет
Forced                                   : Нет
Текст #5
Идентификатор                            : 10
Формат файла                                   : ASS
Идентификатор кодека                     : S_TEXT/ASS
Идентификатор кодека/Информация          : Advanced Sub Station Alpha
Метод сжатия                             : Без потерь
Заголовок                                : Английские форсированные стилизованные (эльфийская речь и пр.)
Язык                                     : English
Default                                  : Нет
Forced                                   : Нет
Текст #6
Идентификатор                            : 11
Формат файла                                   : UTF-8
Идентификатор кодека                     : S_TEXT/UTF8
Идентификатор кодека/Информация          : UTF-8 Plain Text
Заголовок                                : Английские форсированные (эльфийская речь и пр.)
Язык                                     : English
Default                                  : Нет
Forced                                   : Нет
Текст #7
Идентификатор                            : 12
Формат файла                                   : ASS
Идентификатор кодека                     : S_TEXT/ASS
Идентификатор кодека/Информация          : Advanced Sub Station Alpha
Метод сжатия                             : Без потерь
Заголовок                                : Английские полные стилизованные
Язык                                     : English
Default                                  : Нет
Forced                                   : Нет
Текст #8
Идентификатор                            : 13
Формат файла                                   : UTF-8
Идентификатор кодека                     : S_TEXT/UTF8
Идентификатор кодека/Информация          : UTF-8 Plain Text
Заголовок                                : Английские полные
Язык                                     : English
Default                                  : Нет
Forced                                   : Нет
Меню
00:00:00.000                             : en:Chapter 01
00:07:36.789                             : en:Chapter 02
00:10:35.551                             : en:Chapter 03
00:15:39.813                             : en:Chapter 04
00:19:58.447                             : en:Chapter 05
00:25:32.572                             : en:Chapter 06
00:29:57.337                             : en:Chapter 07
00:32:10.637                             : en:Chapter 08
00:34:51.756                             : en:Chapter 09
00:36:18.176                             : en:Chapter 10
00:45:04.118                             : en:Chapter 11
00:46:44.259                             : en:Chapter 12
00:51:21.161                             : en:Chapter 13
00:55:12.392                             : en:Chapter 14
00:57:30.029                             : en:Chapter 15
01:03:31.474                             : en:Chapter 16
01:07:16.073                             : en:Chapter 17
01:08:53.420                             : en:Chapter 18
01:10:35.898                             : en:Chapter 19
01:15:15.010                             : en:Chapter 20
01:17:46.578                             : en:Chapter 21
01:24:11.546                             : en:Chapter 22
01:26:12.458                             : en:Chapter 23
01:29:41.542                             : en:Chapter 24
01:33:14.297                             : en:Chapter 25
01:35:54.039                             : en:Chapter 26
01:37:32.930                             : en:Chapter 27
01:45:38.400                             : en:Chapter 28
01:46:52.307                             : en:Chapter 29
01:48:35.660                             : en:Chapter 30
01:49:53.071                             : en:Chapter 31
01:52:58.923                             : en:Chapter 32
01:57:45.209                             : en:Chapter 33
02:04:10.427                             : en:Chapter 34
02:10:40.901                             : en:Chapter 35
02:20:05.423                             : en:Chapter 36
02:29:46.879                             : en:Chapter 37
02:32:59.738                             : en:Chapter 38
02:40:16.508                             : en:Chapter 39
02:45:56.431                             : en:Chapter 40
02:47:37.949                             : en:Chapter 41
02:53:00.646                             : en:Chapter 42
02:57:52.855                             : en:Chapter 43
03:04:20.659                             : en:Chapter 44
03:11:36.636                             : en:Chapter 45
03:14:18.923                             : en:Chapter 46
03:20:37.176                             : en:Chapter 47
03:28:17.636                             : en:Chapter 48

Благодарности

Огромное спасибо пользователю сайта originaltrilogy под ником 44rh1n за цветокоррекцию расширенных сцен!
А также я хочу поблагодарить [url=profile.php?mode=viewprofile&u=15541909]Yаut[/url] за устранение рассинхрона дубляжа.


[torrentc.info]_t_5692418.torrent
Торрент: Зарегистрирован ·  [ 2019-03-02 17:20 ] ·  be57592cd74e9805c807e7082a1881ca9849be39

61 KB

Статус: проверено
Скачан: 0 раз
Размер: 24.18 GB
Оценка: 
(Голосов: 0)
Сказали спасибо: 0  Спасибо
Похожие темы
[Профиль]    [ЛС]
Показать сообщения:    
Ответить на тему

Текущее время: Сегодня 15:02

Часовой пояс: GMT + 7



Вы не можете начинать темы
Вы не можете отвечать на сообщения
Вы не можете редактировать свои сообщения
Вы не можете удалять свои сообщения
Вы не можете голосовать в опросах
Вы не можете прикреплять файлы к сообщениям
Вы можете скачивать файлы