[iPhone] Еще раз Рубаки / Slayers Try (Ватанабэ Такаси / Watanabe Takashi) (26 из 26) [1997, фэнтези, приключения, комедия, мистика, DVDRip, 480x368]

Ответить на тему
Статистика раздачи [Обновить пиров]
Размер:  5.01 GB   |    Зарегистрирован:  1 месяц 7 дней   |    Скачан:  0 раз

Полного источника не было: Никогда

 
   
 
 
 
Автор Сообщение

Mr_Fox

Создавать темы 17-Фев-2019 19:25

[Цитировать]

Еще раз Рубаки-
Оригинальное название: スレイヤーズ TRY
Английское название: Slayers Try-Год выхода:
1997
Страна: Япония
Жанр:фэнтези, приключения, комедия, мистика
Продолжительность: 26 эп. по 23 мин-Перевод : Профессиональный (полное дублирование) MC
Субтитры: MC-Дата выхода: c 04.04.1997 по 26.09.1997
Количество серий: 26 из 26-Режиссёр: Ватанабэ Такаси
Студия: -Описание: Впервые «Рубаки» появились в конце 1980-х в виде отдельных рассказов писателя по имени Кандзака Хадзимэ под названием Slayers Special. Они публиковались в издании Dragon Magazine - журнале, посвященном, в основном, фэнтезийным RPG-играм. Позднее последовали повести, публиковавшиеся в том же журнале, а затем выходившие отдельными книгами. Иллюстрации к повестям создал Арадзуми Руй. Таким образом, в основе аниме-сериала «Рубаки» – ориентация на RPG-игру, что очень хорошо прослеживается. Режиссер Такаси Ванатабэ отлично справился с задачей экранизировать фэнтази-рассказы и книги. В отличие от его же «Бугипопа», «Рубаки» получились вполне завершенными, понятными и зрелищными.- || || || -Качество: DVDRip
Формат файла: *.m4v
Видео кодек: H.264
Аудио кодек: ААС
Разрешение: 480х368
Другие параметры видео: 896 Кбит/сек, 4:3, 29,970 кадр/сек
Аудио : 160 Кбит/сек, 2 канала(ов), 48,0 КГц
Аудио : 160 Кбит/сек, 2 канала(ов), 48,0 КГц
Вшитая обложка: есть
Доп. теги (режиссёр, актёры и т.д.): есть
Телешоу/видеоклип : есть
Главы: нет
Серия/сезон: есть

Список серий:

1 Majestic? Hoist Sails for the Journey!
2 Doubtful? A Letter from Home!
3 Where`d That Arrogant Guy Go?
4 On The Move! He`s Out For Revenge?
5 A Wild Rumor? You Can`t Have Smoke Without Fire?
6 Wandering Around? The Runaway Shrine Takes A Trip!
7 A Peace Conference? This Is The Dragon Shrine?
8 Be Careful! The Plan Has Begun!
9 Continuous Fire! The Wind-Swept Shore Of Battle!
10 Ready For Exile! Isn`t Two People`s Love Eternal?
11 The Hurdle`s Cleared? Jillas`s Hidden Power!
12 Selfless And Senseless! Pursuit Through The Labyrinth!
13 An Explosive Situation! The One Who Holds The Key!
14 Striding And Swaggering! Lamentation Without End!
15 Disaster And Danger? This Place Is A Wonder Island!
16 Pandemonium! Terror Of The Cursed Jar!
17 Immediate Results? Love Is In The Tiny Differences!
18 The Right Person in the Right Place! Amelia in the Village of Justice!
19 Three People, Three Ways! Where the Light Leads!
20 A Hero`s Advent? For Whom Does the Young Girl Pray?
21 Savage And Unexplored! History Sealed Away!
22 Eternal Death, Final Farewells! A Cry To The Fallen!
23 No Time For Arguing! Head For The Showdown!
24 No Way To Guess! The Forbidden Gateway Is Opened!
25 He Who Emerges From Dark Star!
26 Try Again! When All Returns To White!

MediaInfo

Формат файла                           : MPEG-4
Профиль формата                  : Base Media / Version 2
Идентификатор кодека             : mp42
Размер файла                     : 198 Мбайт
Продолжительность                : 22 м.
Общий поток                      : 1222 Кбит/сек
Альбом                           : Еще раз Рубаки
Жанр                             : Science Fiction
Дата кодирования                 : 1997
Дата пометки                     : UTC 2012-04-29 13:02:02
Программа кодирования            : HandBrake 0.9.6 2012022800
Обложка                          : Yes
iTunMOVI                         :  /  /  /  /  directors /   /    /    name /    Ватанабэ Такаси /    /   /  /
tvsh                             : Еще раз Рубаки
desc                             : Впервые «Рубаки» появились в конце 1980-х в виде отдельных рассказов писателя по имени Кандзака Хадзимэ под названием Slayers Special.
ldes                             : Впервые «Рубаки» появились в конце 1980-х в виде отдельных рассказов писателя по имени Кандзака Хадзимэ под названием Slayers Special. Они публиковались в издании Dragon Magazine - журнале, посвященном, в основном, фэнтезийным RPG-играм. Позднее последовали повести, публиковавшиеся в том же журнале, а затем выходившие отдельными книгами. Иллюстрации к повестям создал Арадзуми Руй. Таким образом, в основе аниме-сериала «Рубаки» – ориентация на RPG-игру, что очень хорошо прослеживается. Режиссер Такаси Ванатабэ отлично справился с задачей экранизировать фэнтази-рассказы и книги. В отличие от его же «Бугипопа», «Рубаки» получились вполне завершенными, понятными и зрелищными.
stik                             : 10
Видео
Идентификатор                    : 1
Формат файла                           : AVC
Формат файла/Информация                : Advanced Video Codec
Профиль формата                  : Baseline@L3.0
Параметр CABAC формата           : Нет
Параметр ReFrames формата        : 4 кадры
Идентификатор кодека             : avc1
Идентификатор кодека/Информация  : Advanced Video Coding
Продолжительность                : 22 м.
Вид битрейта                     : Переменный
Битрейт                          : 896 Кбит/сек
Ширина                           : 480 пикс.
Высота                           : 368 пикс.
Соотношение сторон               : 4:3
Режим частоты кадров             : Переменный
Частота кадров                   : 29,970 кадр/сек
Минимальная частота кадров       : 29,412 кадр/сек
Максимальная частота кадров      : 30,303 кадр/сек
Цветовое пространство            : YUV
Подвыборка цветности             : 4:2:0
Битовая глубина                  : 8 бит
Тип развёртки                    : Прогрессивная
Бит/(Пиксели*Кадры)              : 0.169
Размер потока                    : 145 Мбайт (73%)
Библиотека кодирования           : x264 core 120
Настройки программы              : cabac=0 / ref=4 / deblock=1:0:0 / analyse=0x1:0x131 / me=umh / subme=6 / psy=1 / psy_rd=0.00:0.00 / mixed_ref=1 / me_range=16 / chroma_me=1 / trellis=0 / 8x8dct=0 / cqm=0 / deadzone=21,11 / fast_pskip=0 / chroma_qp_offset=0 / threads=6 / sliced_threads=0 / nr=0 / decimate=1 / interlaced=0 / bluray_compat=0 / constrained_intra=0 / bframes=0 / weightp=0 / keyint=300 / keyint_min=30 / scenecut=40 / intra_refresh=0 / rc_lookahead=40 / rc=2pass / mbtree=1 / bitrate=896 / ratetol=1.0 / qcomp=0.60 / qpmin=3 / qpmax=69 / qpstep=4 / cplxblur=20.0 / qblur=0.5 / vbv_maxrate=1500 / vbv_bufsize=2000 / nal_hrd=none / ip_ratio=1.40 / aq=1:1.00
Дата кодирования                 : UTC 2012-04-22 00:24:14
Дата пометки                     : UTC 2012-04-22 00:28:54
Основные цвета                   : BT.601-6 525, BT.1358 525, BT.1700 NTSC, SMPTE 170M
Характеристики трансфера         : BT.709-5, BT.1361
Коэффициенты матрицы             : BT.601-6 525, BT.1358 525, BT.1700 NTSC, SMPTE 170M
Аудио #1
Идентификатор                    : 2
Формат файла                           : AAC
Формат файла/Информация                : Advanced Audio Codec
Профиль формата                  : LC
Идентификатор кодека             : 40
Продолжительность                : 22 м.
Вид битрейта                     : Переменный
Битрейт                          : 160 Кбит/сек
Максимальный битрейт             : 205 Кбит/сек
Канал(ы)                         : 2 канала(ов)
Расположение каналов             : Front: L R
Частота                          : 48,0 КГц
Метод сжатия                     : С потерями
Размер потока                    : 25,9 Мбайт (13%)
Язык                             : Russian
Дата кодирования                 : UTC 2012-04-22 00:24:14
Дата пометки                     : UTC 2012-04-22 00:28:54
Аудио #2
Идентификатор                    : 3
Формат файла                           : AAC
Формат файла/Информация                : Advanced Audio Codec
Профиль формата                  : LC
Идентификатор кодека             : 40
Продолжительность                : 22 м.
Вид битрейта                     : Переменный
Битрейт                          : 160 Кбит/сек
Максимальный битрейт             : 203 Кбит/сек
Канал(ы)                         : 2 канала(ов)
Расположение каналов             : Front: L R
Частота                          : 48,0 КГц
Метод сжатия                     : С потерями
Размер потока                    : 25,9 Мбайт (13%)
Язык                             : Japanese
Дата кодирования                 : UTC 2012-04-22 00:24:14
Дата пометки                     : UTC 2012-04-22 00:28:54
Текст
Идентификатор                    : 4
Формат файла                           : Timed text
Режим смешивания                 : sbtl
Идентификатор кодека             : tx3g
Продолжительность                : 22 м.
Вид битрейта                     : Переменный
Битрейт                          : 321 бит/сек
Размер потока                    : 53,1 Кбайт (0%)
Язык                             : Russian
Дата кодирования                 : UTC 2012-04-22 00:24:14
Дата пометки                     : UTC 2012-04-22 00:28:54

Скриншоты



[torrentc.info]_t_4041396.torrent
Торрент: Зарегистрирован ·  [ 2019-02-17 19:23 ] ·  9264eef8d602d36c3392f75a08929cf2e32da643

12 KB

Статус: проверено
Скачан: 0 раз
Размер: 5.01 GB
Оценка: 
(Голосов: 0)
Сказали спасибо: 0  Спасибо
Похожие темы
[Профиль]    [ЛС]
Показать сообщения:    
Ответить на тему

Текущее время: Сегодня 14:54

Часовой пояс: GMT + 7



Вы не можете начинать темы
Вы не можете отвечать на сообщения
Вы не можете редактировать свои сообщения
Вы не можете удалять свои сообщения
Вы не можете голосовать в опросах
Вы не можете прикреплять файлы к сообщениям
Вы можете скачивать файлы