(Techno) [WEB] Nkisi - 7 Directions [l. UIQ] - 2019, FLAC (tracks), lossless

Ответить на тему
Статистика раздачи [Обновить пиров]
Размер:  253 MB   |    Зарегистрирован:  1 месяц 7 дней   |    Скачан:  0 раз

Полного источника не было: Никогда

 
   
 
 
 
Автор Сообщение

Генри

Создавать темы 17-Фев-2019 18:16

[Цитировать]

Nkisi — 2019 — "7 Directions"
Melika Ngombe Kolongo (born / currently): Congo / United Kingdom
.
Жанры альбома: Techno • Ambient Techno
Кодек: (*.flac) ⚫ Битрейт: lossless ⚫ Тип рипа: tracks
Носитель: WEB [BANDCAMP.com] ⚫ Источник: REDacted
Лэйбл: UIQ (United Kingdom) ⚫ № по каталогу: UIQLP002

TRACK LISTING
01. I [07:50]
02. II [10:19]
03. III [04:12]
04. IV [07:43]
05. V [06:08]
06. VI [06:30]
07. VII [05:48]

total length [00:48:27]

✓auCDtect

-----------------------
DON'T MODIFY THIS FILE
-----------------------
PERFORMER: auCDtect Task Manager, ver. 1.6.0 RC1 build 1.6.0.1Copyright (c) 2008-2010 y-soft. All rights reserved
ANALYZER: auCDtect: CD records authenticity detector, version 0.8.2Copyright (c) 2004 Oleg Berngardt. All rights reserved.Copyright (c) 2004 Alexander Djourik. All rights reserved.
FILE: 07. VII.flac Size: 29499074 Hash: 191D9BE4326F7C5BF7C4A554F10A67A9 Accuracy: -m0 Conclusion: CDDA 99% Signature: 2D3BE15465BE9FAFFF62677347D3F7CFB2A2F0B8FILE: 06. VI.flac Size: 39525130 Hash: E27C9476E6A8695446861012CF8F2847 Accuracy: -m0 Conclusion: CDDA 100% Signature: DFCA4558207BEB1004F6B93E1848659397593A9CFILE: 05. V.flac Size: 29474163 Hash: 4452E7D9E52E4746ABD162A5D5A54764 Accuracy: -m0 Conclusion: CDDA 100% Signature: 6223E7BAF443E6F6AA35A75EA642BCC73DB68DD5FILE: 04. IV.flac Size: 40763659 Hash: 21C3C970444DB8460CA8C967874BFCEA Accuracy: -m0 Conclusion: CDDA 99% Signature: 8FB18C3231C619D2A0EF62A963469DBC7606C89DFILE: 03. III.flac Size: 23496845 Hash: 4D96DD4DF63707859BBD879869CF819F Accuracy: -m0 Conclusion: CDDA 100% Signature: FE16E19ED83ACDFDD3CFE34F45450C36F2861B71FILE: 02. II.flac Size: 63027859 Hash: DF742262E6EBA1AE9913FD14473E35DF Accuracy: -m0 Conclusion: CDDA 100% Signature: CE9196D016CA3934D40D7E8DAA0B017E805EFBA3FILE: 01. I.flac Size: 37389867 Hash: 2CB7620855EF95483D2B497EEBFC719F Accuracy: -m0 Conclusion: CDDA 100% Signature: B504D0D13519C265E21937AC70969DFEAC54B83A

dynamic range

foobar2000 1.3.9 / Dynamic Range Meter 1.1.1log date: 2019-02-13 07:12:44
--------------------------------------------------------------------------------Analyzed: Nkisi / 7 Directions--------------------------------------------------------------------------------
DR Peak RMS Duration Track--------------------------------------------------------------------------------DR6 -0.80 dB -9.20 dB 7:49 01-IDR6 -0.80 dB -7.57 dB 10:19 02-IIDR6 -0.80 dB -7.35 dB 4:11 03-IIIDR5 -0.80 dB -6.93 dB 7:42 04-IVDR5 -0.80 dB -6.78 dB 6:08 05-VDR5 -0.80 dB -6.85 dB 6:30 06-VIDR6 -0.80 dB -7.92 dB 5:47 07-VII--------------------------------------------------------------------------------
Number of tracks: 7Official DR value: DR6
Samplerate: 44100 HzChannels: 2Bits per sample: 16Bitrate: 678 kbpsCodec: FLAC================================================================================

spectrogram




[torrentc.info]_t_5689064.torrent
Торрент: Зарегистрирован ·  [ 2019-02-17 18:16 ] ·  d7d1c7d9df68fc4bff9bf5e83bf6f22e523370d1

21 KB

Статус: проверено
Скачан: 0 раз
Размер: 253 MB
Оценка: 
(Голосов: 0)
Сказали спасибо: 0  Спасибо
Похожие темы
[Профиль]    [ЛС]
Показать сообщения:    
Ответить на тему

Текущее время: Сегодня 15:01

Часовой пояс: GMT + 7



Вы не можете начинать темы
Вы не можете отвечать на сообщения
Вы не можете редактировать свои сообщения
Вы не можете удалять свои сообщения
Вы не можете голосовать в опросах
Вы не можете прикреплять файлы к сообщениям
Вы можете скачивать файлы