Greta Van Fleet - Rock am Ring 2018 [2018, Hard rock,, HDRip]

Ответить на тему
Статистика раздачи [Обновить пиров]
Размер:  720 MB   |    Зарегистрирован:  1 месяц 7 дней   |    Скачан:  0 раз

Полного источника не было: Никогда

 
   
 
 
 
Автор Сообщение

Генри

Создавать темы 17-Фев-2019 18:16

[Цитировать]

Greta Van Fleet - Rock am Ring 2018 Жанр: Hard rock,
Продолжительность: 00:40:02.
Год выхода: 2018
Описание: Группа образовалась в 2012 году в штате Мичиган (Франкенмут, США) тремя братьями Джош Кизка (вокал), Джейк Кизка (гитара) и Сэм Кизка (бас-гитара), и ударником Кайлом Хааком. В октябре 2013 года Кайл Хаак покидает группу, его место занял давний друг семьи Дэнни Вагнер
Мы должны были сыграть свое первое серьезное шоу на АвтоФесте во Франкенмуте. И за день до выступления наша группа до сих пор не имела названия. Мы репетировали в нашем гараже, когда наш оригинальный ударник, Кайл, сказал что ему нужно уйти сегодня пораньше и помочь своему деду, который вырезал древесину для некой женщины — Гретна ван Флит. После чего Джош сказал: «отличный вариант для названия группы». И так, мы просто напросто выкинули n чтобы было проще, и получилось «Greta Van Fleet». Через некоторое время эта женщина даже пришла на наш концерт со своим мужем, им понравилась наша музыка, и можно сказать, мы получили её личное благословление.
Среди записанных ими песен «By the Riverside», «Cloud Train», «Lover, Leaver, Taker, Believer», «Down to the River», «Sing in the Rain», «Thunder Stomp», «You’re the One» и «Written in Gold».
7 декабря 2018 года группа была номинирована на премию Грэмми-2019 (Grammy Awards) по четырем позициям: Лучший новый исполнитель (Best New Artist), Лучшее рок-исполнение (Best Rock Perfomance) за композицию «Highway Tune», Лучшая рок песня (Best Rock Song) за композицию «Black Smoke Rising», Лучший рок альбом (Best rock album) за пластинку From the Fires.

Джошуа «Джош» Кизка, род. 23 апреля 1996 (22 года) — лид-вокал
Джейкоб «Джейк» Кизка, род. 23 апреля 1996 (22 года) — лид.гитара
Сэмюэл «Сэм» Кизка, род. 3 апреля 1999 (19 лет) — бас-гитара, клавишные
Дэниел «Дэнни» Вагнер, род. 29 декабря 1998 (20 лет) — ударные

( материалом поделился ув. meloman67 )
Треклист:
Highway Tune
Edge of Darkness
Lover Leaver Taker Believer
Flower Power
Black Smoke Rising
Safari Song

Доп. информация: по видео

скрытый текст

Полное имя Greta Van Fleet - Rock am Ring 2018.avi
Формат файла : AVI
Формат файла/Информация : Audio Video Interleave
Размер файла : 720 Мбайт
Продолжительность : 40 м.
Общий поток : 2515 Кбит/сек
Программа кодирования : Lavf51.12.1
Видео
Идентификатор : 0
Формат файла : xvid
Идентификатор кодека : xvid
Продолжительность : 40 м.
Битрейт : 2392 Кбит/сек
Ширина : 688 пикселей
Высота : 384 пикселя
Соотношение сторон : 16:9
Частота кадров : 25,000 кадров/сек
Бит/(Пиксели*Кадры) : 0.362
Размер потока : 685 Мбайт (95%)
Аудио
Идентификатор : 1
Формат файла : AC-3
Формат файла/Информация : Audio Coding 3
Расширение режима : CM (complete main)
Параметр Endianness формата : Big
Идентификатор кодека : 2000
Продолжительность : 40 м.
Вид битрейта : Постоянный
Битрейт : 112 Кбит/сек
Каналы : 2 канала
Расположение каналов : Front: L R
Частота : 48,0 КГц
Битовая глубина : 16 бит
Метод сжатия : С потерями
Размер потока : 32,1 Мбайт (4%)
Выравнивание : Соединение по промежуткам
Продолжительность промежутка : 32 мс. (0,80 видеокадр)
Время предзагрузки промежутка : 32 мс.
Источник: собственный рип
Cсылка [url=viewtopic.php?sid=kM6qXgfX&t=5605482]http://Torrentc/forum/viewtopic.php?sid=kM6qXgfX&t=5605482[/url]
Качество: HDRip
Формат файла: AVI
Видео кодек: XviD
Аудио кодек: AC3
Видео: : 688x384 (1.79:1), 25 fps, XviD build 63 ~2391 kbps avg, 0.36 bit/pixel
Аудио: 48 kHz, AC3 Dolby Digital, 2/0 (L,R) ch, ~112.00 kbps avg

Скриншоты



[torrentc.info]_t_5690200.torrent
Торрент: Зарегистрирован ·  [ 2019-02-17 18:16 ] ·  76c5a728dfc48f1f195e39599d12852637a18858

15 KB

Статус: проверено
Скачан: 0 раз
Размер: 720 MB
Оценка: 
(Голосов: 0)
Сказали спасибо: 0  Спасибо
Похожие темы
[Профиль]    [ЛС]
Показать сообщения:    
Ответить на тему

Текущее время: Сегодня 15:17

Часовой пояс: GMT + 7



Вы не можете начинать темы
Вы не можете отвечать на сообщения
Вы не можете редактировать свои сообщения
Вы не можете удалять свои сообщения
Вы не можете голосовать в опросах
Вы не можете прикреплять файлы к сообщениям
Вы можете скачивать файлы